<?xml version="1.0" standalone="no"?>
<!DOCTYPE svg PUBLIC "-//W3C//DTD SVG 1.1//EN" "http://www.w3.org/Graphics/SVG/1.1/DTD/svg11.dtd">
<svg xmlns="http://www.w3.org/2000/svg">
<defs >
<font id="Rubik" horiz-adv-x="542" ><font-face
    font-family="Rubik Light SemiBold"
    units-per-em="1000"
    panose-1="0 0 0 0 0 0 0 0 0 0"
    ascent="935"
    descent="-250"
    alphabetic="0" />
<glyph unicode=" " horiz-adv-x="221" />
<glyph unicode="!" horiz-adv-x="279" d="M91 207Q80 207 73 214T66 232V675Q66 686 73 693T91 700H189Q199 700 206 693T213 675V232Q213 222 206 215T189 207H91ZM85 0Q75 0 68 7T61 25V133Q61 143 68 150T85 158H193Q204 158 211 151T218 133V25Q218 14 211
7T193 0H85Z" />
<glyph unicode="&quot;" horiz-adv-x="432" d="M288 456Q275 456 270 464T262 482L241 682Q239 695 245 702T264 710H364Q376 710 382 703T387 682L366 482Q365 472 360 464T340 456H288ZM92 456Q79 456 74 464T66 482L45 682Q43 695 50 702T68 710H168Q180 710
186 703T191 682L170 482Q169 472 164 464T144 456H92Z" />
<glyph unicode="#" horiz-adv-x="689" d="M153 39Q144 39 138 45T132 61L147 163H69Q59 163 53 169T46 186V254Q46 264 52 270T69 277H164L185 417H95Q85 417 79 423T72 440V508Q72 518 78 524T95 531H202L218 634Q220 642 225 648T241 655H310Q319 655 325 649T331
633L315 531H429L445 634Q447 642 452 648T468 655H537Q546 655 552 649T558 633L542 531H619Q630 531 636 525T643 508V440Q643 430 637 424T619 417H525L505 277H593Q604 277 610 271T617 254V186Q617 176 611 170T593 163H487L473 60Q470 39 449 39H380Q371
39 365 45T359 61L374 163H260L246 60Q243 39 222 39H153ZM278 277H391L412 417H298L278 277Z" />
<glyph unicode="$" horiz-adv-x="655" d="M291 -100Q280 -100 273 -93T266 -75V-6Q190 3 139 31T62 101T34 187Q34 196 40 202T56 208H163Q176 208 183 203T196 190Q203 172 218 156T261 130T328 120Q393 120 425 141T458 198Q458 223 441 239T386 268T285 295Q210
312 158 337T80 403T53 504Q53 583 109 638T266 706V775Q266 786 273 793T291 800H362Q373 800 380 793T387 775V704Q456 693 502 663T572 594T598 519Q598 510 592 504T577 497H464Q455 497 447 501T433 515Q427 542 398 561T322 580Q273 580 245 563T216 508Q216
484 230 468T279 439T371 412Q459 394 514 369T595 304T621 204Q621 146 592 102T510 30T387 -6V-75Q387 -86 380 -93T362 -100H291Z" />
<glyph unicode="%" horiz-adv-x="795" d="M111 0Q89 0 89 20Q89 26 93 31L587 681Q594 690 601 695T621 700H683Q705 700 705 680Q705 674 701 669L208 19Q201 10 194 5T173 0H111ZM603 -5Q536 -5 496 31T452 127Q450 153 450 173T452 221Q455 281 493 318T603
355Q675 355 713 318T755 221Q757 193 757 173T755 127Q751 67 711 31T603 -5ZM603 77Q622 77 633 85T649 106T656 133Q658 156 658 174T656 216Q655 237 643 254T603 271Q575 271 564 254T551 216Q550 193 550 175T551 133Q552 119 557 107T573 86T603 77ZM192
347Q124 347 85 382T41 478Q39 504 39 523T41 571Q44 632 82 668T192 705Q264 705 302 669T343 571Q345 543 345 524T343 478Q340 418 300 383T192 347ZM192 428Q211 428 222 436T238 457T245 483Q247 507 247 525T245 566Q244 587 232 604T192 622Q164 622 153
605T139 566Q138 544 138 526T139 483Q141 470 146 457T162 436T192 428Z" />
<glyph unicode="&amp;" horiz-adv-x="730" d="M296 -10Q221 -10 165 14T78 85T47 193Q47 237 64 271T113 332T184 383Q143 427 126 463T108 537Q108 583 132 622T203 685T318 710Q382 710 427 687T496 624T520 539Q520 498 502 466T452 407T378 357L509 227Q519
243 534 273T561 350Q564 366 582 366H669Q678 366 683 361T689 346Q689 327 681 302T658 248T628 193T593 143L702 33Q709 25 709 18Q709 10 704 5T690 0H575Q565 0 559 3T548 10L498 58Q458 24 409 7T296 -10ZM296 105Q329 105 358 116T413 150L266 295Q235 278
213 255T190 198Q190 169 205 148T245 116T296 105ZM300 441Q325 454 346 467T379 497T391 535Q391 566 371 584T318 602Q289 602 267 584T245 535Q245 521 250 508T267 478T300 441Z" />
<glyph unicode="&apos;" horiz-adv-x="236" d="M92 456Q79 456 74 464T66 482L45 682Q43 695 50 702T68 710H168Q180 710 186 703T191 682L170 482Q169 472 164 464T144 456H92Z" />
<glyph unicode="(" horiz-adv-x="373" d="M325 -159Q257 -159 205 -133T118 -50T64 96T46 309Q46 434 64 522T117 667T205 749T325 776Q335 776 342 769T349 751V679Q349 669 342 662T326 655Q285 653 258 631T214 565T190 458T183 309Q183 224 190 160T213 52T257
-13T326 -38Q335 -38 342 -45T349 -62V-134Q349 -144 342 -151T325 -159Z" />
<glyph unicode=")" horiz-adv-x="373" d="M48 -159Q38 -159 31 -152T23 -134V-62Q23 -52 30 -45T47 -38Q88 -36 115 -14T159 52T182 159T189 309Q189 394 182 458T159 565T116 630T47 655Q38 655 31 662T23 679V751Q23 761 30 768T48 776Q116 776 168 750T255
667T309 523T327 309Q327 185 309 96T256 -49T168 -132T48 -159Z" />
<glyph unicode="*" horiz-adv-x="445" d="M152 392L87 441Q80 446 79 455T82 471Q82 472 88 477L155 535L67 542Q63 543 62 543T59 544Q52 546 48 554T45 572L70 649Q72 657 81 661T97 663Q99 663 105 660L180 615L161 700Q160 703 160 705T160 708Q160 716 166
723T182 730H263Q272 730 278 723T285 708Q285 707 285 705T284 700L264 614L340 660Q346 663 348 663Q356 665 364 661T375 649L400 572Q402 563 398 555T386 544Q385 544 384 544T378 542L290 534L357 477Q363 472 363 471Q368 464 367 455T358 441L293 392Q285
388 276 389T262 398Q261 399 260 400T257 404L222 486L188 404Q187 402 186 401T183 398Q179 391 170 390T152 392Z" />
<glyph unicode="+" horiz-adv-x="610" d="M270 33Q260 33 253 40T246 58V247H61Q50 247 43 254T36 271V334Q36 345 43 352T61 359H246V542Q246 553 253 560T270 567H341Q351 567 358 560T365 542V359H550Q560 359 567 352T574 334V271Q574 261 567 254T550 247H365V58Q365
47 358 40T341 33H270Z" />
<glyph unicode="," horiz-adv-x="271" d="M56 -75Q47 -75 42 -69T38 -53L66 129Q68 142 76 152T100 163H205Q213 163 218 157T223 144Q223 137 221 131L151 -48Q147 -58 140 -66T116 -75H56Z" />
<glyph unicode="-" horiz-adv-x="479" d="M84 235Q74 235 67 242T60 260V340Q60 351 67 358T84 365H395Q405 365 412 358T419 340V260Q419 249 412 242T395 235H84Z" />
<glyph unicode="." horiz-adv-x="276" d="M82 0Q71 0 64 7T57 25V138Q57 148 64 155T82 163H195Q205 163 212 156T220 138V25Q220 14 213 7T195 0H82Z" />
<glyph unicode="/" horiz-adv-x="521" d="M45 -84Q36 -84 30 -78T24 -63Q24 -58 26 -53L366 763Q369 771 376 778T399 786H476Q485 786 491 780T497 765Q497 761 495 755L154 -61Q152 -68 144 -76T121 -84H45Z" />
<glyph unicode="0" horiz-adv-x="669" d="M334 -10Q262 -10 211 10T126 67T76 152T56 256Q55 283 55 316T54 384T56 446Q58 501 75 549T127 633T212 689T334 710Q404 710 455 690T540 633T591 549T612 446Q613 418 613 384T614 317T612 256Q609 201 592 153T542
68T457 11T334 -10ZM334 120Q392 120 419 158T447 261Q449 290 449 321T449 383T447 441Q446 503 419 542T334 581Q276 581 249 542T220 441Q220 414 220 383T219 321T220 261Q222 196 249 158T334 120Z" />
<glyph unicode="1" horiz-adv-x="480" d="M277 0Q267 0 260 7T252 25V522L108 410Q99 404 90 405T73 416L23 482Q17 491 18 501T29 517L257 693Q263 697 268 698T281 700H387Q398 700 405 693T412 675V25Q412 14 405 7T387 0H277Z" />
<glyph unicode="2" horiz-adv-x="634" d="M68 0Q57 0 50 7T43 25V85Q43 93 47 107T68 134L199 263Q272 319 318 358T386 430T408 492Q408 531 387 556T318 581Q286 581 264 568T231 532T214 485Q211 472 202 467T182 462H76Q66 462 60 468T54 483Q55 529 73 570T126
643T208 693T317 712Q401 712 458 685T544 609T573 498Q573 450 554 409T498 331T409 253L292 135H563Q574 135 581 128T588 110V25Q588 14 581 7T563 0H68Z" />
<glyph unicode="3" horiz-adv-x="645" d="M318 -10Q244 -10 191 8T104 54T53 115T35 180Q35 189 41 195T56 201H167Q178 201 185 197T197 181Q206 158 223 144T265 125T318 119Q374 119 406 145T438 218Q438 266 408 287T323 308H216Q206 308 199 315T192 332V381Q192
393 196 401T206 414L378 570H96Q85 570 78 577T71 595V675Q71 686 78 693T96 700H541Q552 700 559 693T566 675V602Q566 592 562 585T551 572L389 413L399 411Q458 405 504 382T576 317T602 209Q602 141 565 92T464 17T318 -10Z" />
<glyph unicode="4" horiz-adv-x="667" d="M392 0Q382 0 375 7T368 25V145H53Q43 145 36 152T29 170V251Q29 259 32 267T40 282L333 683Q346 700 370 700H497Q508 700 515 693T522 675V279H611Q622 279 629 272T636 254V170Q636 159 629 152T611 145H522V25Q522
14 515 7T497 0H392ZM185 273H371V536L185 273Z" />
<glyph unicode="5" horiz-adv-x="633" d="M313 -11Q223 -11 162 18T70 94T36 194Q36 203 42 209T57 215H170Q183 215 190 210T201 195Q211 169 227 152T266 127T314 119Q346 119 372 132T415 171T431 235Q431 268 416 293T375 332T314 346Q287 346 271 340T243
325T223 311T204 304H92Q83 304 77 310T70 326L105 671Q107 685 115 692T136 700H524Q535 700 542 693T549 675V595Q549 584 542 577T524 570H235L221 424Q240 438 270 448T352 458Q400 458 443 443T521 397T575 326T595 231Q595 159 561 105T463 20T313 -11Z"
/>
<glyph unicode="6" horiz-adv-x="639" d="M325 -10Q238 -10 173 22T73 110T37 238Q37 268 46 298T68 354T94 402T117 436L297 680Q301 685 309 692T332 700H445Q454 700 460 694T466 678Q466 674 465 671T461 665L324 476Q332 478 342 479T360 480Q408 479 452
461T532 411T587 336T608 240Q608 173 574 116T476 25T325 -10ZM323 120Q356 120 384 133T429 173T446 238Q446 277 429 303T384 343T323 357Q291 357 263 344T218 304T201 238Q201 200 218 174T263 134T323 120Z" />
<glyph unicode="7" horiz-adv-x="558" d="M143 0Q134 0 128 6T122 22Q122 26 124 31L360 565H53Q43 565 36 572T28 590V675Q28 686 35 693T53 700H507Q518 700 525 693T532 675V600Q532 585 529 575T522 555L287 24Q283 18 276 9T253 0H143Z" />
<glyph unicode="8" horiz-adv-x="666" d="M333 -10Q263 -10 210 6T120 52T66 121T48 208Q48 265 75 307T147 372Q112 395 93 430T73 513Q73 569 102 613T188 684T333 710Q419 710 476 685T562 615T591 514Q591 467 573 431T518 372Q564 350 591 307T619 207Q619
145 587 96T490 19T333 -10ZM333 106Q368 106 396 118T442 153T459 207Q459 239 442 261T397 296T333 308Q298 308 269 296T224 262T207 207Q207 176 223 153T269 118T333 106ZM333 418Q364 419 389 430T429 460T444 506Q444 533 430 552T390 583T333 594Q301 594
276 583T237 553T222 506Q222 479 236 460T276 429T333 418Z" />
<glyph unicode="9" horiz-adv-x="629" d="M179 0Q170 0 164 6T158 22Q158 27 159 30T162 35L306 233Q289 229 271 229Q223 231 180 249T103 298T50 371T31 464Q31 510 48 554T101 633T188 689T309 710Q378 710 431 691T520 639T574 562T592 469Q592 425 577 387T539
316T495 252L327 20Q323 15 316 8T292 0H179ZM310 348Q344 348 370 362T412 402T428 464Q428 501 413 526T370 566T310 580Q278 580 252 566T209 527T193 464Q193 428 209 402T251 362T310 348Z" />
<glyph unicode=":" horiz-adv-x="283" d="M85 350Q74 350 67 357T60 375V482Q60 493 67 500T85 507H198Q208 507 215 500T223 482V375Q223 364 216 357T198 350H85ZM85 0Q74 0 67 7T60 25V132Q60 143 67 150T85 157H198Q208 157 215 150T223 132V25Q223 14 216
7T198 0H85Z" />
<glyph unicode=";" horiz-adv-x="293" d="M64 -75Q55 -75 50 -69T46 -53L74 129Q76 142 84 152T108 163H213Q221 163 226 157T231 144Q231 137 229 131L159 -48Q155 -58 148 -66T124 -75H64ZM98 350Q87 350 80 357T73 375V482Q73 493 80 500T98 507H211Q221 507
228 500T236 482V375Q236 364 229 357T211 350H98Z" />
<glyph unicode="&lt;" horiz-adv-x="510" d="M428 48Q424 48 419 50T409 55L60 293Q46 303 39 313T31 337V365Q31 380 38 389T60 409L409 647Q414 649 419 651T428 654Q437 654 443 649T449 634V542Q449 527 441 519T422 504L192 351L422 197Q432 191 440 183T449
160V68Q449 59 443 54T428 48Z" />
<glyph unicode="=" horiz-adv-x="567" d="M88 367Q78 367 71 374T64 392V458Q64 469 71 476T88 483H479Q489 483 496 476T503 458V392Q503 381 496 374T479 367H88ZM88 117Q78 117 71 124T64 142V208Q64 219 71 226T88 233H479Q489 233 496 226T503 208V142Q503
131 496 124T479 117H88Z" />
<glyph unicode="&gt;" horiz-adv-x="510" d="M82 48Q74 48 68 53T62 68V160Q62 175 70 183T88 197L319 351L88 504Q78 511 70 519T62 542V634Q62 643 68 648T82 654Q87 654 92 652T101 647L450 409Q465 399 472 390T479 365V337Q479 323 472 313T450 293L101 55Q97
53 92 51T82 48Z" />
<glyph unicode="?" horiz-adv-x="580" d="M236 200Q228 200 222 205T216 220Q216 227 216 233T216 247Q221 284 238 313T279 368T326 414T364 458T382 502Q385 527 373 545T339 572T293 581Q250 581 223 560T186 495Q183 484 176 478T156 471H52Q43 471 36 478T29
497Q30 537 48 575T101 643T186 692T302 710Q374 710 422 692T498 646T538 585T549 523Q547 486 533 457T498 402T455 354T415 307T390 256Q388 248 387 241T384 225Q379 213 373 207T355 200H236ZM236 0Q225 0 218 7T211 25V125Q211 135 218 142T236 150H348Q359
150 366 143T373 125V25Q373 14 366 7T348 0H236Z" />
<glyph unicode="@" horiz-adv-x="841" d="M424 -127Q306 -127 227 -88T105 22T52 186Q51 200 51 223T50 272T50 321T52 357Q59 422 84 479T155 579T264 648T414 673Q514 673 584 650T698 585T765 484T792 357Q794 335 794 311T794 265T792 230Q789 181 769 147T716
96T643 79Q610 79 586 88T547 110T524 131Q517 119 503 104T464 79T395 69Q321 69 278 123T235 273Q235 368 277 423T393 478Q433 478 456 465T494 432V445Q494 456 501 463T518 470H564Q574 470 581 463T588 445V240Q588 205 603 187T643 169Q666 169 678 181T694
209T699 240Q699 260 700 290T698 352Q694 429 665 480T576 557T414 582Q330 582 274 554T186 474T147 352Q145 335 145 304T144 242T147 191Q159 83 226 23T424 -37Q489 -37 527 -29T588 -7T628 19Q636 25 642 29T658 33H721Q731 33 738 26T745 8Q745 4 743 1T739
-6Q711 -38 670 -65T568 -110T424 -127ZM411 159Q454 159 474 188T494 273Q494 329 474 358T411 388Q369 388 349 359T329 273Q329 239 337 213T364 173T411 159Z" />
<glyph unicode="A" horiz-adv-x="704" d="M33 0Q24 0 18 6T12 21Q12 26 13 30L251 673Q254 684 263 692T288 700H416Q432 700 441 692T454 673L691 30Q693 26 693 21Q693 13 687 7T671 0H566Q552 0 545 7T536 20L493 132H211L169 20Q166 14 160 7T138 0H33ZM249
261H455L352 548L249 261Z" />
<glyph unicode="B" horiz-adv-x="695" d="M98 0Q88 0 81 7T74 25V675Q74 686 81 693T98 700H396Q479 700 532 676T611 608T636 505Q636 468 623 440T590 394T552 367Q591 349 621 308T651 209Q651 146 623 99T539 26T405 0H98ZM233 118H386Q435 118 460 145T485
210Q485 249 460 275T386 302H233V118ZM233 417H377Q424 417 447 440T471 501Q471 538 448 560T377 582H233V417Z" />
<glyph unicode="C" horiz-adv-x="693" d="M352 -10Q259 -10 193 21T91 113T51 261Q50 302 50 349T51 439Q55 525 91 585T194 678T352 710Q420 710 474 693T569 644T631 569T655 473Q656 464 650 458T634 452H519Q507 452 500 457T489 477Q474 537 439 558T352
580Q291 580 255 546T216 434Q213 352 216 266Q219 188 255 154T352 120Q404 120 439 142T489 223Q493 237 500 242T519 248H634Q643 248 649 242T655 227Q654 174 632 131T569 56T475 7T352 -10Z" />
<glyph unicode="D" horiz-adv-x="709" d="M98 0Q88 0 81 7T74 25V675Q74 686 81 693T98 700H350Q450 700 517 669T619 577T657 427Q659 383 659 350T657 274Q654 181 620 120T521 30T355 0H98ZM233 130H350Q400 130 431 144T479 191T496 276Q497 305 497 328T498
374T496 425Q494 500 458 535T345 570H233V130Z" />
<glyph unicode="E" horiz-adv-x="631" d="M98 0Q88 0 81 7T74 25V675Q74 686 81 693T98 700H552Q563 700 570 693T577 675V595Q577 584 570 577T552 570H228V414H530Q541 414 548 407T555 389V315Q555 305 548 298T530 290H228V130H560Q571 130 578 123T585 105V25Q585
14 578 7T560 0H98Z" />
<glyph unicode="F" horiz-adv-x="609" d="M98 0Q88 0 81 7T74 25V675Q74 686 81 693T98 700H545Q556 700 563 693T570 675V589Q570 579 563 572T545 565H231V396H525Q536 396 543 389T550 371V286Q550 276 543 269T525 262H231V25Q231 14 224 7T206 0H98Z" />
<glyph unicode="G" horiz-adv-x="710" d="M355 -10Q261 -10 195 21T92 113T52 260Q51 303 51 352T52 445Q55 529 91 588T195 678T355 710Q429 710 485 691T579 642T637 575T658 505Q658 496 652 490T636 484H512Q502 484 497 488T487 500Q480 517 465 536T423
567T355 580Q292 580 256 547T216 440Q213 354 216 265Q219 188 257 154T357 120Q398 120 430 134T482 179T501 258V283H392Q382 283 375 290T368 308V372Q368 383 375 390T392 397H638Q649 397 656 390T663 372V263Q663 177 625 116T518 23T355 -10Z" />
<glyph unicode="H" horiz-adv-x="737" d="M98 0Q88 0 81 7T74 25V675Q74 686 81 693T98 700H208Q219 700 226 693T233 675V425H504V675Q504 686 511 693T528 700H638Q649 700 656 693T663 675V25Q663 14 656 7T638 0H528Q518 0 511 7T504 25V283H233V25Q233 14
226 7T208 0H98Z" />
<glyph unicode="I" horiz-adv-x="311" d="M98 0Q88 0 81 7T74 25V675Q74 686 81 693T98 700H213Q223 700 230 693T237 675V25Q237 14 230 7T213 0H98Z" />
<glyph unicode="J" horiz-adv-x="661" d="M308 -10Q252 -10 202 4T113 46T51 117T27 215Q27 224 33 230T48 237H163Q177 237 184 231T195 210Q201 179 217 159T257 129T312 120Q369 120 399 156T429 261V566H97Q87 566 80 573T73 591V675Q73 686 80 693T97 700H568Q579
700 586 693T593 675V257Q593 171 557 112T457 21T308 -10Z" />
<glyph unicode="K" horiz-adv-x="647" d="M98 0Q88 0 81 7T74 25V675Q74 686 81 693T98 700H206Q217 700 224 693T231 675V447L436 681Q440 687 449 693T475 700H597Q605 700 611 694T618 679Q618 672 614 667L357 365L633 33Q637 29 637 21Q637 13 631 7T616
0H490Q472 0 463 8T451 19L231 275V25Q231 14 224 7T206 0H98Z" />
<glyph unicode="L" horiz-adv-x="588" d="M98 0Q88 0 81 7T74 25V675Q74 686 81 693T98 700H211Q221 700 228 693T235 675V135H545Q556 135 563 128T570 110V25Q570 14 563 7T545 0H98Z" />
<glyph unicode="M" horiz-adv-x="819" d="M99 0Q88 0 81 7T74 25V675Q74 686 81 693T99 700H193Q208 700 215 692T225 680L410 342L595 680Q597 684 604 692T627 700H720Q731 700 738 693T745 675V25Q745 14 738 7T720 0H618Q608 0 601 7T594 25V428L467 191Q463
182 455 175T433 168H386Q373 168 365 175T352 191L226 428V25Q226 14 219 7T201 0H99Z" />
<glyph unicode="N" horiz-adv-x="713" d="M98 0Q88 0 81 7T74 25V675Q74 686 81 693T98 700H190Q205 700 212 693T221 682L487 266V675Q487 686 494 693T512 700H614Q625 700 632 693T639 675V25Q639 15 632 8T614 0H522Q507 0 500 7T491 18L226 421V25Q226 14
219 7T201 0H98Z" />
<glyph unicode="O" horiz-adv-x="703" d="M352 -10Q261 -10 195 20T92 110T52 263Q51 306 51 348T52 435Q55 525 92 586T196 679T352 710Q440 710 506 679T611 587T652 435Q654 391 654 349T652 263Q649 171 612 111T508 20T352 -10ZM352 120Q410 120 447 155T487
268Q489 312 489 350T487 432Q486 484 468 517T421 565T352 580Q314 580 284 565T236 517T216 432Q215 389 215 351T216 268Q219 190 256 155T352 120Z" />
<glyph unicode="P" horiz-adv-x="668" d="M98 0Q88 0 81 7T74 25V675Q74 686 81 693T98 700H372Q453 700 513 675T606 600T639 473Q639 398 606 349T513 275T372 251H238V25Q238 14 231 7T213 0H98ZM236 375H367Q418 375 446 400T474 474Q474 519 449 547T367
575H236V375Z" />
<glyph unicode="Q" horiz-adv-x="703" d="M522 -65Q507 -65 499 -57T485 -42L449 6Q406 -10 351 -10Q260 -10 194 20T92 110T51 263Q50 306 50 348T51 435Q55 525 92 586T196 679T351 710Q439 710 505 679T610 587T651 435Q653 391 653 349T651 263Q646 135 579
68L650 -34Q651 -35 652 -38T653 -44Q654 -52 648 -58T633 -65H522ZM351 120Q410 120 447 155T487 268Q489 312 489 350T487 432Q485 484 468 517T420 565T351 580Q313 580 283 565T236 517T216 432Q215 389 215 351T216 268Q219 190 256 155T351 120Z" />
<glyph unicode="R" horiz-adv-x="682" d="M98 0Q88 0 81 7T74 25V675Q74 686 81 693T98 700H364Q489 700 561 643T633 477Q633 404 598 355T504 282L646 32Q649 26 649 21Q649 13 643 7T628 0H516Q498 0 489 9T476 27L354 256H233V25Q233 14 226 7T208 0H98ZM233
383H362Q416 383 442 408T469 478Q469 523 443 549T362 575H233V383Z" />
<glyph unicode="S" horiz-adv-x="652" d="M326 -10Q230 -10 166 18T68 91T33 187Q33 196 39 202T54 208H162Q175 208 182 203T195 190Q202 172 217 156T259 130T326 120Q391 120 423 141T456 198Q456 223 439 239T384 268T284 295Q209 312 157 337T78 403T51 504Q51
564 84 610T177 683T320 710Q387 710 438 692T524 645T577 583T596 519Q596 510 591 504T575 497H463Q453 497 445 501T431 515Q426 542 397 561T320 580Q271 580 243 563T214 508Q214 484 229 468T278 439T370 412Q457 394 512 369T593 304T619 204Q619 137 582
89T479 16T326 -10Z" />
<glyph unicode="T" horiz-adv-x="617" d="M253 0Q242 0 235 7T228 25V560H46Q36 560 29 567T22 585V675Q22 686 29 693T46 700H570Q581 700 588 693T595 675V585Q595 574 588 567T570 560H389V25Q389 14 382 7T364 0H253Z" />
<glyph unicode="U" horiz-adv-x="719" d="M360 -10Q272 -10 206 19T104 110T68 267V675Q68 686 75 693T92 700H202Q213 700 220 693T227 675V268Q227 195 262 159T360 123Q422 123 457 159T492 268V675Q492 686 499 693T517 700H627Q637 700 644 693T651 675V267Q651
172 616 111T515 20T360 -10Z" />
<glyph unicode="V" horiz-adv-x="683" d="M276 0Q260 0 250 8T236 29L27 670Q26 675 26 679Q26 687 32 693T47 700H153Q168 700 176 692T187 676L342 187L497 676Q499 683 507 691T531 700H637Q645 700 651 694T658 679Q658 675 656 670L447 29Q443 17 434 9T407 0H276Z" />
<glyph unicode="W" horiz-adv-x="823" d="M188 0Q172 0 163 9T150 31L37 672Q36 674 36 676T36 679Q36 687 42 693T57 700H163Q189 700 192 679L266 257L347 519Q350 527 357 536T380 545H443Q459 545 466 536T476 519L557 258L631 679Q634 700 660 700H766Q775
700 781 694T787 679Q787 678 787 676T786 672L673 31Q671 18 662 9T635 0H554Q538 0 530 8T518 26L412 336L305 26Q302 17 294 9T269 0H188Z" />
<glyph unicode="X" horiz-adv-x="676" d="M36 0Q27 0 21 6T15 21Q15 24 16 27T18 33L239 357L33 667Q30 673 30 679Q30 687 36 693T51 700H174Q188 700 195 693T207 680L341 481L475 680Q479 686 487 693T508 700H625Q634 700 640 694T646 679Q646 672 643 667L436
358L659 33Q661 30 661 27T662 21Q662 13 656 7T641 0H513Q500 0 492 7T481 19L335 228L191 19Q187 14 180 7T159 0H36Z" />
<glyph unicode="Y" horiz-adv-x="672" d="M281 0Q270 0 263 7T256 25V245L22 668Q21 671 20 673T19 679Q19 687 25 693T40 700H147Q160 700 168 693T179 680L336 405L493 680Q496 686 504 693T526 700H632Q641 700 647 694T653 679Q653 676 653 674T650 668L416
245V25Q416 14 409 7T391 0H281Z" />
<glyph unicode="Z" horiz-adv-x="638" d="M63 0Q52 0 45 7T38 25V109Q38 123 44 132T53 145L389 566H72Q62 566 55 573T48 591V675Q48 686 55 693T72 700H564Q575 700 582 693T589 675V592Q589 581 585 573T576 558L249 135H575Q586 135 593 128T600 110V25Q600
14 593 7T575 0H63Z" />
<glyph unicode="[" horiz-adv-x="369" d="M89 -159Q78 -159 71 -152T64 -134V751Q64 762 71 769T89 776H318Q329 776 336 769T343 751V678Q343 668 336 661T318 654H202V-27H318Q329 -27 336 -34T343 -52V-134Q343 -145 336 -152T318 -159H89Z" />
<glyph unicode="\" horiz-adv-x="520" d="M400 -84Q384 -84 377 -76T366 -61L25 755Q23 761 23 765Q23 773 29 779T44 786H121Q136 786 144 779T155 763L494 -53Q496 -58 496 -63Q496 -71 490 -77T475 -84H400Z" />
<glyph unicode="]" horiz-adv-x="369" d="M51 -159Q40 -159 33 -152T26 -134V-52Q26 -41 33 -34T51 -27H166V654H51Q40 654 33 661T26 678V751Q26 762 33 769T51 776H280Q290 776 297 769T304 751V-134Q304 -145 297 -152T280 -159H51Z" />
<glyph unicode="^" horiz-adv-x="456" d="M67 585Q52 585 52 599Q52 607 60 615L160 719Q171 730 178 733T195 736H261Q271 736 278 733T296 719L396 615Q404 607 404 599Q404 585 389 585H347Q339 585 331 586T314 592L228 643L142 592Q135 588 126 587T109 585H67Z" />
<glyph unicode="_" horiz-adv-x="739" d="M74 -64Q64 -64 57 -57T49 -40V40Q49 51 56 58T74 65H665Q675 65 682 58T689 40V-40Q689 -50 682 -57T665 -64H74Z" />
<glyph unicode="`" horiz-adv-x="383" d="M232 595Q218 595 211 598T195 609L66 714Q61 719 61 726Q61 746 80 746H196Q209 746 216 743T233 727L318 624Q323 619 323 611Q323 595 307 595H232Z" />
<glyph unicode="a" horiz-adv-x="580" d="M216 -10Q163 -10 121 10T54 66T29 144Q29 215 86 256T238 312L369 331V349Q369 388 351 409T288 430Q255 430 236 417T205 383Q197 370 181 370H86Q75 370 69 376T64 392Q64 409 77 432T117 477T186 515T289 530Q352
530 397 515T469 473T509 411T522 334V25Q522 14 515 7T498 0H399Q389 0 382 7T375 25V62Q362 43 340 27T288 0T216 -10ZM256 94Q289 94 315 108T356 151T371 224V241L278 226Q225 217 200 199T175 155Q175 136 186 123T216 102T256 94Z" />
<glyph unicode="b" horiz-adv-x="622" d="M366 -10Q309 -10 271 9T208 59V25Q208 14 201 7T183 0H88Q77 0 70 7T63 25V685Q63 696 70 703T88 710H191Q202 710 209 703T216 685V468Q240 495 277 512T366 530Q417 530 455 513T521 464T562 389T579 294Q580 276 580
261T579 226Q577 173 562 130T521 55T456 7T366 -10ZM320 110Q358 110 380 126T411 170T423 229Q425 260 423 291Q421 323 412 350T380 393T320 410Q285 410 262 394T228 354T216 301Q215 283 215 264T216 226Q217 196 227 170T260 127T320 110Z" />
<glyph unicode="c" horiz-adv-x="580" d="M295 -10Q221 -10 166 17T78 95T43 219Q42 235 42 259T43 300Q46 373 77 424T165 503T295 530Q361 530 408 512T485 465T530 406T546 353Q547 342 539 335T521 328H414Q403 328 398 333T387 349Q374 384 352 399T297 414Q252
414 227 385T199 295Q197 256 199 224Q201 162 226 134T297 106Q332 106 353 121T387 171Q392 182 397 187T414 192H521Q531 192 539 185T546 167Q545 150 536 127T509 80T461 36T391 3T295 -10Z" />
<glyph unicode="d" horiz-adv-x="622" d="M256 -10Q206 -10 167 6T101 54T60 129T43 226Q42 245 42 260T43 294Q45 346 59 389T100 463T166 512T256 530Q308 530 345 513T406 468V685Q406 696 413 703T431 710H534Q545 710 552 703T559 685V25Q559 14 552 7T534
0H438Q428 0 421 7T414 25V59Q389 29 351 10T256 -10ZM302 110Q339 110 361 127T394 170T406 226Q408 245 408 264T406 301Q405 329 394 353T360 394T302 410Q264 410 242 394T211 350T199 291Q197 260 199 229Q201 197 210 170T242 127T302 110Z" />
<glyph unicode="e" horiz-adv-x="586" d="M295 -10Q180 -10 113 54T41 240Q41 248 41 261T41 282Q45 360 76 415T163 500T294 530Q379 530 435 496T519 402T548 265V242Q548 232 541 225T523 217H197Q197 217 197 215T197 210Q198 178 209 152T241 109T294 93Q318
93 334 100T360 117T376 134Q385 145 390 147T407 150H513Q522 150 528 144T534 129Q533 112 518 89T472 43T398 5T295 -10ZM197 309H392V312Q392 347 381 373T347 415T294 430Q263 430 242 415T209 374T197 312V309Z" />
<glyph unicode="f" horiz-adv-x="428" d="M145 0Q134 0 127 7T120 25V402H42Q31 402 24 409T17 426V495Q17 506 24 513T42 520H120V556Q120 620 144 661T214 721T327 740H401Q411 740 418 733T425 715V646Q425 636 418 629T401 622H334Q297 622 283 604T268 551V520H391Q401
520 408 513T415 495V426Q415 416 408 409T391 402H268V25Q268 14 261 7T243 0H145Z" />
<glyph unicode="g" horiz-adv-x="625" d="M307 -220Q233 -220 184 -201T107 -154T66 -99T53 -56Q52 -46 60 -39T78 -31H185Q195 -31 201 -35T211 -52Q217 -64 226 -77T253 -100T302 -109Q337 -109 360 -99T394 -65T406 0V67Q382 41 346 24T256 7Q204 7 165 23T99
70T59 144T43 241Q42 268 43 294Q45 346 59 389T99 463T164 512T256 530Q311 530 350 509T414 457V495Q414 505 421 512T438 520H536Q547 520 554 513T561 495L562 14Q562 -61 533 -113T448 -192T307 -220ZM302 125Q338 125 360 141T394 182T406 236Q407 247 407
267T406 299Q405 327 394 352T361 393T302 410Q264 410 242 394T211 350T199 291Q197 267 199 244Q201 211 210 184T242 141T302 125Z" />
<glyph unicode="h" horiz-adv-x="639" d="M88 0Q77 0 70 7T63 25V685Q63 696 70 703T88 710H196Q207 710 214 703T221 685V460Q247 492 286 511T381 530Q440 530 485 504T556 427T582 304V25Q582 14 575 7T557 0H448Q438 0 431 7T424 25V298Q424 351 398 380T324
410Q277 410 249 381T221 298V25Q221 14 214 7T196 0H88Z" />
<glyph unicode="i" horiz-adv-x="275" d="M87 0Q77 0 70 7T62 25V495Q62 506 69 513T87 520H188Q198 520 205 513T212 495V25Q212 14 205 7T188 0H87ZM84 600Q74 600 67 607T60 625V706Q60 716 67 723T84 731H190Q200 731 207 724T215 706V625Q215 614 208 607T190
600H84Z" />
<glyph unicode="j" horiz-adv-x="291" d="M-24 -190Q-35 -190 -42 -183T-49 -165V-96Q-49 -86 -42 -79T-24 -72H8Q35 -72 49 -62T69 -33T74 7V495Q74 506 81 513T98 520H203Q214 520 221 513T228 495V4Q228 -57 205 -100T136 -167T23 -190H-24ZM95 600Q85 600
78 607T71 625V706Q71 716 78 723T95 731H206Q216 731 223 724T231 706V625Q231 614 224 607T206 600H95Z" />
<glyph unicode="k" horiz-adv-x="567" d="M88 0Q77 0 70 7T63 25V685Q63 696 70 703T88 710H186Q196 710 203 703T211 685V347L364 503Q372 510 378 515T399 520H513Q522 520 528 514T535 498Q535 494 533 489T526 481L333 287L551 38Q559 30 559 22Q559 13 553
7T537 0H421Q406 0 400 5T385 17L211 213V25Q211 14 204 7T186 0H88Z" />
<glyph unicode="l" horiz-adv-x="276" d="M88 0Q77 0 70 7T63 25V685Q63 696 70 703T88 710H188Q199 710 206 703T213 685V25Q213 14 206 7T188 0H88Z" />
<glyph unicode="m" horiz-adv-x="909" d="M87 0Q77 0 70 7T62 25V495Q62 506 69 513T87 520H180Q191 520 198 513T205 495V461Q226 489 261 509T346 530Q461 532 505 442Q528 481 571 505T666 530Q718 530 760 507T827 435T852 310V25Q852 14 845 7T827 0H728Q717
0 710 7T703 25V302Q703 343 692 366T661 399T617 410Q596 410 577 400T545 366T532 302V25Q532 14 525 7T508 0H409Q398 0 391 7T384 25V302Q384 343 372 366T341 399T298 410Q277 410 258 400T226 366T213 303V25Q213 14 206 7T188 0H87Z" />
<glyph unicode="n" horiz-adv-x="633" d="M87 0Q77 0 70 7T62 25V495Q62 506 69 513T87 520H185Q196 520 203 513T210 495V456Q236 488 277 509T377 530Q436 530 481 504T551 427T576 304V25Q576 14 569 7T551 0H445Q434 0 427 7T420 25V298Q420 351 395 380T320
410Q273 410 246 381T218 298V25Q218 14 211 7T193 0H87Z" />
<glyph unicode="o" horiz-adv-x="601" d="M301 -10Q218 -10 162 17T77 96T44 215Q43 235 43 260T44 305Q47 374 78 424T165 502T301 530Q380 530 436 503T523 425T558 305Q559 286 559 261T558 215Q554 147 525 96T439 18T301 -10ZM301 101Q350 101 374 131T402
220Q403 235 403 260T402 300Q399 358 375 388T301 419Q252 419 227 389T199 300Q198 285 198 260T199 220Q202 161 227 131T301 101Z" />
<glyph unicode="p" horiz-adv-x="622" d="M88 -190Q77 -190 70 -183T63 -165V495Q63 506 70 513T88 520H183Q194 520 201 513T208 495V457Q232 489 270 509T366 530Q417 530 455 514T520 467T562 393T579 296Q580 277 580 260T579 223Q577 172 563 129T521 55T456
7T366 -10Q314 -10 277 8T216 59V-165Q216 -176 209 -183T191 -190H88ZM320 110Q358 110 380 126T411 170T423 229Q425 260 423 291Q421 323 412 350T380 393T320 410Q283 410 261 393T228 350T216 294Q215 276 215 257T216 219Q217 191 228 167T262 126T320 110Z"
/>
<glyph unicode="q" horiz-adv-x="622" d="M431 -190Q421 -190 414 -183T407 -165V59Q383 27 346 9T257 -10Q206 -10 167 7T101 55T60 129T44 223Q43 243 43 260T44 296Q46 350 60 393T101 466T167 513T257 530Q313 530 352 510T414 457V495Q414 506 421 513T439
520H535Q545 520 552 513T559 495V-165Q559 -176 552 -183T535 -190H431ZM302 110Q338 110 360 126T394 166T407 219Q408 238 408 257T407 294Q406 324 395 350T362 393T302 410Q265 410 243 394T212 350T200 291Q197 260 200 229Q202 197 211 170T243 127T302
110Z" />
<glyph unicode="r" horiz-adv-x="436" d="M87 0Q77 0 70 7T62 25V495Q62 505 69 512T87 520H185Q196 520 203 513T210 495V455Q235 486 272 503T356 520H399Q410 520 417 513T424 495V408Q424 398 417 391T399 384H312Q267 384 243 359T218 290V25Q218 14 211
7T193 0H87Z" />
<glyph unicode="s" horiz-adv-x="543" d="M268 -10Q206 -10 162 4T90 40T49 82T34 119Q33 130 41 137T57 144H154Q158 144 160 143T167 138Q180 129 193 118T226 98T272 90Q305 90 327 103T350 142Q350 160 340 172T301 194T215 216Q161 228 123 248T66 298T47
372Q47 411 71 447T144 506T264 530Q319 530 360 517T430 483T472 441T488 403Q489 392 482 385T466 378H377Q372 378 368 380T361 385Q349 392 337 403T307 422T263 430Q231 430 214 416T196 379Q196 365 205 353T241 331T327 310Q395 298 435 274T492 219T509
151Q509 104 482 68T400 11T268 -10Z" />
<glyph unicode="t" horiz-adv-x="448" d="M313 0Q251 0 208 20T141 84T118 192V402H40Q29 402 22 409T15 426V495Q15 506 22 513T40 520H118V685Q118 696 125 703T143 710H242Q252 710 259 703T266 685V520H391Q402 520 409 513T416 495V426Q416 416 409 409T391
402H266V204Q266 166 280 145T327 123H400Q411 123 418 116T425 99V25Q425 14 418 7T400 0H313Z" />
<glyph unicode="u" horiz-adv-x="631" d="M254 -10Q196 -10 152 16T82 93T57 216V495Q57 506 64 513T82 520H189Q199 520 206 513T213 495V222Q213 110 311 110Q358 110 385 139T413 222V495Q413 506 420 513T438 520H544Q554 520 561 513T568 495V25Q568 14 561
7T544 0H445Q435 0 428 7T421 25V64Q395 28 354 9T254 -10Z" />
<glyph unicode="v" horiz-adv-x="584" d="M247 0Q232 0 225 7T212 25L24 489Q22 493 22 498Q22 507 28 513T44 520H141Q154 520 160 513T169 500L292 171L415 500Q418 506 424 513T443 520H540Q549 520 555 514T562 498Q562 493 561 489L373 25Q369 15 361 8T337 0H247Z" />
<glyph unicode="w" horiz-adv-x="829" d="M206 0Q192 0 185 7T173 25L30 488Q28 493 28 498Q28 507 34 513T50 520H139Q151 520 158 513T167 500L258 192L355 498Q357 505 364 512T386 520H443Q457 520 464 513T474 498L571 192L662 500Q663 506 670 513T690 520H779Q788
520 794 514T801 498Q801 493 799 488L656 25Q652 14 645 7T623 0H546Q532 0 524 7T512 25L415 320L317 25Q313 14 306 7T283 0H206Z" />
<glyph unicode="x" horiz-adv-x="576" d="M41 0Q32 0 26 6T19 22Q19 25 20 29T25 38L194 267L39 482Q36 486 35 490T33 498Q33 507 39 513T55 520H159Q172 520 178 514T188 503L290 364L393 502Q397 507 403 513T422 520H522Q531 520 537 514T544 498Q544 494
543 490T538 482L380 266L550 38Q554 34 555 30T556 22Q556 13 550 7T534 0H425Q413 0 407 5T397 16L287 164L175 16Q171 12 165 6T147 0H41Z" />
<glyph unicode="y" horiz-adv-x="586" d="M158 -190Q150 -190 144 -184T137 -169Q137 -167 138 -164T141 -155L219 32L27 485Q24 493 24 498Q25 507 31 513T46 520H144Q156 520 162 514T171 500L295 191L422 500Q426 508 432 514T451 520H546Q555 520 561 514T568
499Q568 494 565 485L282 -170Q278 -178 272 -184T252 -190H158Z" />
<glyph unicode="z" d="M63 0Q53 0 46 7T39 25V92Q39 102 43 110T54 125L299 403H72Q61 403 54 410T47 428V495Q47 506 54 513T72 520H463Q473 520 480 513T487 495V422Q487 414 483 407T473 392L234 117H483Q494 117 501 110T508 92V25Q508 14 501 7T483 0H63Z" />
<glyph unicode="{" horiz-adv-x="411" d="M359 -158Q301 -158 254 -140T175 -86T125 5T108 131Q108 175 95 204T53 248L41 253Q15 268 15 293V325Q15 350 41 365L53 370Q82 386 95 414T108 487Q108 559 125 613T174 703T253 757T358 776H364Q374 776 380 770T386
754V677Q386 667 380 661T366 655H362Q318 652 293 633T257 575T245 471Q245 409 225 367T171 309Q194 299 210 276T236 219T245 147Q245 84 256 44T292 -14T361 -37H366Q374 -38 380 -44T386 -59V-136Q386 -146 380 -152T364 -158H359Z" />
<glyph unicode="|" horiz-adv-x="257" d="M90 -208Q79 -208 72 -201T65 -183V871Q65 882 72 889T90 896H167Q178 896 185 889T192 871V-183Q192 -194 185 -201T167 -208H90Z" />
<glyph unicode="}" horiz-adv-x="411" d="M52 776Q111 775 157 757T236 703T286 613T303 487Q303 442 316 414T358 369L370 364Q396 350 396 325V292Q396 267 370 253L358 247Q329 232 316 203T303 131Q303 58 286 5T237 -85T158 -139T53 -158H47Q37 -158 31 -152T25
-136V-59Q25 -50 31 -44T45 -37H49Q93 -34 118 -15T155 43T166 146Q166 209 186 250T240 309Q218 320 201 343T175 398T166 471Q166 535 155 574T119 632T50 654L45 655Q37 655 31 661T25 677V754Q25 763 31 769T47 776H52Z" />
<glyph unicode="~" horiz-adv-x="556" d="M83 221Q72 221 68 228T63 248V315Q63 332 78 347T117 373T173 383Q208 383 233 377T282 364T329 350T385 344Q412 344 430 354T458 372Q462 375 465 376T474 379Q485 379 489 372T494 352V285Q494 268 479 253T440 227T384
217Q350 217 324 223T276 236T229 250T172 256Q145 256 127 245T99 227Q95 225 92 223T83 221Z" />
<glyph unicode="&#xa0;" horiz-adv-x="221" />
<glyph unicode="&#xa1;" horiz-adv-x="272" d="M186 311Q196 311 203 304T210 286V-157Q210 -168 203 -175T186 -182H88Q77 -182 70 -175T63 -157V286Q63 296 70 303T88 311H186ZM191 518Q201 518 208 511T215 493V385Q215 375 208 368T191 360H83Q72 360 65 367T58
385V493Q58 504 65 511T83 518H191Z" />
<glyph unicode="&#xa2;" horiz-adv-x="587" d="M250 -100Q239 -100 232 -93T225 -75V-2Q145 13 97 70T45 219Q44 235 44 259T45 300Q48 391 96 448T225 522V585Q225 596 232 603T250 610H334Q345 610 352 603T359 585V523Q410 514 445 493T503 446T536 395T547
353Q548 342 541 335T523 328H415Q405 328 400 333T389 349Q375 384 352 399T295 414Q253 414 228 385T200 295Q199 256 200 224Q203 162 228 134T295 106Q330 106 353 121T389 171Q393 182 399 187T415 192H523Q533 192 540 185T547 167Q546 152 536 127T505 76T447
28T359 -3V-75Q359 -86 352 -93T334 -100H250Z" />
<glyph unicode="&#xa3;" horiz-adv-x="710" d="M487 -8Q452 -8 425 0T374 20T329 44T286 65T241 73Q209 73 194 57T172 15Q170 10 167 5T154 0H63Q55 0 50 5T44 18Q46 83 77 126T157 187Q156 210 153 233T145 281H69Q59 281 52 288T45 306V372Q45 382 52 389T69
396H121Q120 409 120 422T119 451Q119 531 149 589T238 679T385 711Q468 711 529 682T624 601T659 480Q659 471 653 465T637 458H524Q512 458 504 464T491 483Q480 531 455 556T385 581Q333 581 309 546T284 450Q284 436 284 423T286 396H447Q457 396 464 389T471
372V306Q471 296 464 289T447 281H293Q296 258 298 235T301 184Q328 179 348 169T387 147T423 128T465 120Q501 120 518 138T546 185Q548 190 552 194T564 199H644Q653 199 658 194T663 180Q662 120 637 78T572 14T487 -8Z" />
<glyph unicode="&#xa4;" horiz-adv-x="607" d="M106 58L62 103Q55 110 55 120T62 137L107 182Q73 234 73 300Q73 365 107 418L62 463Q55 470 55 480T62 497L106 542Q114 549 124 549T141 542L185 497Q211 513 241 522T303 531Q336 531 366 522T422 497L466 542Q474
549 483 549T501 542L545 497Q553 490 553 480T545 463L500 418Q516 393 525 363T534 300Q534 267 525 237T500 182L545 137Q553 130 553 120T545 103L501 58Q493 51 484 51T466 58L422 103Q369 69 303 69Q237 69 185 103L141 58Q134 51 124 51T106 58ZM303 181Q337
181 364 197T407 240T423 300Q423 333 407 360T364 403T303 419Q270 419 243 403T200 360T184 300Q184 267 200 240T243 197T303 181Z" />
<glyph unicode="&#xa5;" horiz-adv-x="671" d="M280 0Q269 0 262 7T255 25V256L32 668Q31 671 30 673T29 679Q29 687 35 693T50 700H158Q172 700 180 693T191 680L335 419L480 680Q483 686 491 693T513 700H620Q629 700 635 694T641 679Q641 676 641 674T638 668L415
256V25Q415 14 408 7T390 0H280ZM123 77Q113 77 106 84T99 101V169Q99 179 106 186T123 193H548Q558 193 565 186T572 169V101Q572 91 565 84T548 77H123ZM123 222Q113 222 106 229T99 247V315Q99 325 106 332T123 339H548Q558 339 565 332T572 315V247Q572 236
565 229T548 222H123Z" />
<glyph unicode="&#xa6;" horiz-adv-x="262" d="M92 475Q82 475 75 482T68 500V804Q68 815 75 822T92 829H169Q180 829 187 822T194 804V500Q194 489 187 482T169 475H92ZM92 0Q82 0 75 7T68 25V329Q68 340 75 347T92 354H169Q180 354 187 347T194 329V25Q194 14
187 7T169 0H92Z" />
<glyph unicode="&#xa7;" horiz-adv-x="596" d="M290 -140Q234 -140 192 -126T121 -90T78 -42T62 6Q61 16 67 21T83 27H177Q186 27 192 23T203 11Q209 0 217 -10T243 -27T289 -34Q325 -34 342 -15T360 30Q360 50 351 64T316 89T237 113Q163 134 119 160T56 223T36
312Q36 354 56 387T109 446Q98 463 93 482T88 526Q88 574 112 616T185 684T306 710Q381 710 431 686T507 629T534 565Q535 555 529 550T513 544H418Q409 544 403 548T391 561Q386 571 378 581T353 597T307 604Q271 604 254 585T236 540Q236 520 245 506T280 481T359
457Q433 436 477 410T540 347T560 258Q560 216 540 183T487 124Q499 107 503 88T508 44Q508 -4 484 -46T411 -114T290 -140ZM378 196Q400 205 411 218T423 252Q423 272 415 287T383 316T315 341Q283 351 261 358T218 374Q195 366 184 352T172 318Q172 299 181 284T213
256T282 228Q329 214 378 196Z" />
<glyph unicode="&#xa8;" horiz-adv-x="445" d="M280 611Q269 611 263 617T257 633V715Q257 725 263 731T280 738H362Q372 738 378 732T385 715V633Q385 623 379 617T362 611H280ZM82 611Q72 611 66 617T60 633V715Q60 725 66 731T82 738H165Q175 738 181 732T188
715V633Q188 623 182 617T165 611H82Z" />
<glyph unicode="&#xa9;" horiz-adv-x="812" d="M406 -10Q331 -10 266 18T152 95T74 210T46 350Q46 425 74 490T151 604T266 682T406 710Q481 710 546 682T660 605T738 490T766 350Q766 275 738 210T661 96T546 18T406 -10ZM406 66Q465 66 515 88T604 149T664 240T686
350Q686 408 664 460T604 551T516 612T406 634Q348 634 298 612T209 551T149 460T127 350Q127 292 148 240T208 149T297 88T406 66ZM406 158Q354 158 317 178T260 234T237 314Q237 322 237 336T236 365T237 388Q240 433 260 468T317 523T406 544Q465 544 502 525T558
479T577 426Q577 416 571 410T555 404H497Q486 404 481 410T472 424Q464 443 449 452T406 462Q379 462 365 450T345 420T338 385Q338 378 338 365T337 338T338 317Q339 300 344 282T364 252T406 240Q434 240 449 249T472 278Q475 285 480 291T497 298H555Q565 298
571 292T577 276Q576 251 558 224T503 177T406 158Z" />
<glyph unicode="&#xaa;" horiz-adv-x="359" d="M136 429Q93 429 66 452T39 508Q39 547 69 569T152 600L211 609Q211 616 209 623T201 635T178 640Q164 640 156 636T142 627T126 622H73Q66 622 61 625T57 636Q58 648 72 664T113 692T181 705Q241 705 272 677T304
596V452Q304 444 299 439T286 434H232Q224 434 219 439T213 452V462Q204 447 183 438T136 429ZM158 494Q186 494 198 510T211 551L174 544Q147 539 138 531T129 513Q129 504 137 499T158 494Z" />
<glyph unicode="&#xab;" horiz-adv-x="618" d="M541 71Q538 71 533 73T522 80L319 277Q311 284 308 292T304 308V350Q304 358 307 366T319 381L522 578Q528 583 533 585T541 587Q550 587 556 581T562 566V485Q562 470 558 462T544 444L427 329L544 214Q554 204
558 196T562 173V92Q562 83 556 77T541 71ZM271 71Q267 71 262 73T252 80L49 277Q41 284 38 292T34 308V350Q34 358 37 366T49 381L252 578Q257 583 262 585T271 587Q280 587 286 581T292 566V485Q292 470 288 462T274 444L156 329L274 214Q284 204 288 196T292
173V92Q292 83 286 77T271 71Z" />
<glyph unicode="&#xac;" horiz-adv-x="572" d="M415 110Q404 110 397 117T390 134V234H83Q73 234 66 241T58 259V325Q58 336 65 343T83 350H484Q494 350 501 343T508 325V134Q508 124 501 117T484 110H415Z" />
<glyph unicode="&#xad;" horiz-adv-x="600" d="M84 235Q74 235 67 242T60 260V340Q60 351 67 358T84 365H395Q405 365 412 358T419 340V260Q419 249 412 242T395 235H84Z" />
<glyph unicode="&#xae;" horiz-adv-x="812" d="M406 -10Q331 -10 266 18T152 95T74 210T46 350Q46 425 74 490T151 604T266 682T406 710Q481 710 546 682T660 605T738 490T766 350Q766 275 738 210T661 96T546 18T406 -10ZM406 66Q465 66 515 88T604 149T664 240T686
350Q686 408 664 460T604 551T516 612T406 634Q348 634 298 612T209 551T149 460T127 350Q127 292 148 240T208 149T297 88T406 66ZM284 168Q262 168 262 190V512Q262 534 284 534H421Q459 534 493 523T548 485T570 413Q570 373 552 348T506 310L562 204Q564 201
565 198T566 190Q566 182 561 175T544 168H494Q484 168 477 172T465 187L413 292H359V190Q359 168 337 168H284ZM359 371H420Q449 371 459 384T470 413Q470 431 460 443T420 456H359V371Z" />
<glyph unicode="&#xaf;" horiz-adv-x="429" d="M82 608Q72 608 66 614T60 631V691Q60 701 66 707T82 714H347Q357 714 363 708T370 691V631Q370 620 364 614T347 608H82Z" />
<glyph unicode="&#xb0;" horiz-adv-x="405" d="M202 386Q157 386 119 407T58 465T35 548Q35 594 58 631T119 689T202 710Q249 710 286 689T346 631T369 548Q369 502 347 466T287 408T202 386ZM202 472Q236 472 257 493T278 548Q278 582 257 603T202 624Q168 624
147 603T126 548Q126 514 147 493T202 472Z" />
<glyph unicode="&#xb1;" horiz-adv-x="566" d="M248 189Q238 189 231 196T224 214V363H78Q68 363 61 370T54 388V451Q54 461 61 468T78 475H224V620Q224 631 231 638T248 645H319Q330 645 337 638T344 620V475H488Q499 475 506 468T513 451V388Q513 377 506 370T488
363H344V214Q344 203 337 196T319 189H248ZM88 0Q78 0 71 7T64 25V88Q64 98 71 105T88 112H478Q489 112 496 105T503 88V25Q503 14 496 7T478 0H88Z" />
<glyph unicode="&#xb2;" horiz-adv-x="353" d="M49 350Q27 350 27 372V403Q27 411 32 418T51 436Q109 479 145 505T198 550T215 590Q215 607 205 617T174 627Q157 627 148 622T135 609T128 597Q122 586 117 583T104 579H53Q34 579 35 598Q37 628 55 652T105 690T174
705Q236 705 273 674T310 593Q310 561 295 536T251 486T176 430H303Q325 430 325 408V372Q325 350 303 350H49Z" />
<glyph unicode="&#xb3;" horiz-adv-x="351" d="M170 345Q117 345 86 359T40 394T23 434Q22 444 29 448T40 453H76Q85 453 93 451T108 446Q116 443 121 438T136 428T167 424Q192 424 206 433T221 459Q221 478 207 485T170 492H125Q116 492 110 498T104 513V536Q104
543 107 548T115 558L179 617H62Q40 617 40 639V678Q40 700 62 700H281Q303 700 303 678V644Q303 635 301 629T289 614L223 560Q271 553 296 527T321 457Q321 406 280 376T170 345Z" />
<glyph unicode="&#xb4;" horiz-adv-x="383" d="M76 595Q60 595 60 611Q60 619 65 624L150 727Q159 739 166 742T187 746H302Q321 746 321 726Q321 719 316 714L188 609Q180 602 172 599T151 595H76Z" />
<glyph unicode="&#xb5;" horiz-adv-x="644" d="M89 -199Q78 -199 71 -192T64 -175V495Q64 506 71 513T89 520H198Q209 520 216 513T223 495V222Q223 187 237 162T275 124T324 110Q351 110 373 123T410 162T425 222V495Q425 506 432 513T450 520H556Q567 520 574
513T581 495V25Q581 14 574 7T556 0H458Q447 0 440 7T433 25V64Q416 41 392 25T332 4Q296 1 270 9T223 33V-175Q223 -185 216 -192T198 -199H89Z" />
<glyph unicode="&#xb6;" horiz-adv-x="603" d="M239 -100Q229 -100 222 -93T215 -75V325Q163 325 121 350T53 418T27 513Q27 565 52 607T120 674T215 700H509Q519 700 526 693T533 675V-75Q533 -86 526 -93T509 -100H438Q428 -100 421 -93T413 -75V595H334V-75Q334
-86 327 -93T310 -100H239Z" />
<glyph unicode="&#xb7;" horiz-adv-x="330" d="M165 205Q132 205 105 221T61 265T44 326Q44 359 60 386T104 430T165 446Q199 446 226 430T269 387T286 326Q286 293 270 266T226 222T165 205Z" />
<glyph unicode="&#xb8;" horiz-adv-x="300" d="M144 -220Q117 -220 96 -211T65 -190T65 -169L82 -153Q91 -145 97 -148T114 -158T144 -164Q160 -164 169 -155T179 -132Q179 -119 170 -110T144 -101Q132 -101 122 -104T103 -109T87 -103L69 -84Q63 -78 64 -71T70
-52L105 27H168L128 -51Q134 -48 144 -47T162 -45Q198 -45 219 -69T241 -131Q241 -169 216 -194T144 -220Z" />
<glyph unicode="&#xb9;" horiz-adv-x="265" d="M147 350Q125 350 125 372V587L71 547Q64 542 55 543T40 552L17 583Q11 591 12 599T21 614L125 693Q135 700 148 700H200Q222 700 222 678V372Q222 350 200 350H147Z" />
<glyph unicode="&#xba;" horiz-adv-x="355" d="M178 429Q115 429 81 457T43 540Q42 548 42 567T43 594Q46 648 82 676T178 705Q237 705 273 677T313 594Q314 587 314 568T313 540Q310 486 276 458T178 429ZM178 499Q198 499 207 510T218 545Q219 553 219 567T218
589Q217 611 208 623T178 635Q158 635 149 623T137 589Q136 582 136 568T137 545Q139 521 148 510T178 499Z" />
<glyph unicode="&#xbb;" horiz-adv-x="618" d="M347 71Q338 71 332 77T326 92V173Q326 188 330 196T344 214L462 329L344 444Q334 454 330 462T326 485V566Q326 575 332 581T347 587Q351 587 356 585T366 578L569 381Q577 374 580 366T584 350V308Q584 300 581
292T569 277L366 80Q361 75 356 73T347 71ZM77 71Q68 71 62 77T56 92V173Q56 188 60 196T74 214L191 329L74 444Q64 454 60 462T56 485V566Q56 575 62 581T77 587Q80 587 85 585T96 578L299 381Q307 374 310 366T314 350V308Q314 300 311 292T299 277L96 80Q91
75 86 73T77 71Z" />
<glyph unicode="&#xbc;" horiz-adv-x="753" d="M147 350Q125 350 125 372V587L71 547Q64 542 55 543T40 552L17 583Q11 591 12 599T21 614L125 693Q135 700 148 700H200Q222 700 222 678V372Q222 350 200 350H147ZM67 0Q45 0 45 20Q45 26 49 31L542 681Q549 690
556 695T577 700H623Q645 700 645 680Q645 674 641 669L148 19Q141 10 134 5T113 0H67ZM584 -1Q562 -1 562 21V59H412Q390 59 390 81V122Q390 124 391 132T402 152L535 331Q543 342 550 345T565 349H635Q657 349 657 327V143H692Q714 143 714 121V81Q714 59 692
59H657V21Q657 -1 635 -1H584ZM491 141H563V243L491 141Z" />
<glyph unicode="&#xbd;" horiz-adv-x="757" d="M147 350Q125 350 125 372V587L71 547Q64 542 55 543T40 552L17 583Q11 591 12 599T21 614L125 693Q135 700 148 700H200Q222 700 222 678V372Q222 350 200 350H147ZM67 0Q45 0 45 20Q45 26 49 31L542 681Q549 690
556 695T577 700H623Q645 700 645 680Q645 674 641 669L148 19Q141 10 134 5T113 0H67ZM438 0Q416 0 416 22V53Q416 61 421 68T440 86Q498 129 534 155T587 200T604 240Q604 257 594 267T563 277Q546 277 537 272T524 259T517 247Q511 236 506 233T493 229H442Q423
229 424 248Q426 278 444 302T494 340T563 355Q625 355 662 324T699 243Q699 211 684 186T640 136T565 80H692Q714 80 714 58V22Q714 0 692 0H438Z" />
<glyph unicode="&#xbe;" horiz-adv-x="822" d="M170 345Q117 345 86 359T40 394T23 434Q22 444 29 448T40 453H76Q85 453 93 451T108 446Q116 443 121 438T136 428T167 424Q192 424 206 433T221 459Q221 478 207 485T170 492H125Q116 492 110 498T104 513V536Q104
543 107 548T115 558L179 617H62Q40 617 40 639V678Q40 700 62 700H281Q303 700 303 678V644Q303 635 301 629T289 614L223 560Q271 553 296 527T321 457Q321 406 280 376T170 345ZM153 0Q131 0 131 20Q131 26 135 31L628 681Q635 690 642 695T663 700H709Q731
700 731 680Q731 674 727 669L234 19Q227 10 220 5T199 0H153ZM672 -2Q650 -2 650 20V58H500Q478 58 478 80V121Q478 123 479 131T490 151L623 330Q631 341 638 344T653 348H723Q745 348 745 326V142H780Q802 142 802 120V80Q802 58 780 58H745V20Q745 -2 723 -2H672ZM579
140H651V242L579 140Z" />
<glyph unicode="&#xbf;" horiz-adv-x="575" d="M341 319Q350 319 356 314T362 299Q362 292 362 286T361 272Q356 235 339 206T298 151T252 104T213 61T195 17Q193 -8 205 -26T239 -53T284 -62Q328 -62 354 -41T391 24Q395 36 402 42T421 48H525Q535 48 541 41T548
22Q547 -18 529 -56T477 -124T392 -173T275 -191Q203 -191 155 -173T79 -127T39 -66T29 -4Q30 33 44 62T79 117T122 165T162 212T188 263Q189 271 190 278T193 294Q199 306 205 312T223 319H341ZM342 519Q352 519 359 512T366 494V394Q366 383 359 376T342 369H229Q219
369 212 376T204 394V494Q204 505 211 512T229 519H342Z" />
<glyph unicode="&#xc0;" horiz-adv-x="704" d="M33 0Q24 0 18 6T12 21Q12 26 13 30L251 673Q254 684 263 692T288 700H416Q432 700 441 692T454 673L691 30Q693 26 693 21Q693 13 687 7T671 0H566Q552 0 545 7T536 20L493 132H211L169 20Q166 14 160 7T138 0H33ZM249
261H455L352 548L249 261ZM327 750Q314 750 307 753T291 764L162 869Q157 874 157 881Q157 901 176 901H299Q312 901 319 898T336 882L421 779Q426 774 426 766Q426 750 410 750H327Z" />
<glyph unicode="&#xc1;" horiz-adv-x="704" d="M33 0Q24 0 18 6T12 21Q12 26 13 30L251 673Q254 684 263 692T288 700H416Q432 700 441 692T454 673L691 30Q693 26 693 21Q693 13 687 7T671 0H566Q552 0 545 7T536 20L493 132H211L169 20Q166 14 160 7T138 0H33ZM249
261H455L352 548L249 261ZM298 750Q282 750 282 766Q282 774 287 779L372 882Q381 894 388 897T409 901H532Q551 901 551 881Q551 874 546 869L417 764Q409 757 402 754T381 750H298Z" />
<glyph unicode="&#xc2;" horiz-adv-x="704" d="M33 0Q24 0 18 6T12 21Q12 26 13 30L251 673Q254 684 263 692T288 700H416Q432 700 441 692T454 673L691 30Q693 26 693 21Q693 13 687 7T671 0H566Q552 0 545 7T536 20L493 132H211L169 20Q166 14 160 7T138 0H33ZM249
261H455L352 548L249 261ZM189 750Q174 750 174 764Q174 772 182 780L282 884Q293 895 300 898T317 901H389Q398 901 405 898T423 884L523 780Q531 772 531 764Q531 750 516 750H472Q463 750 455 751T439 757L353 808L266 757Q259 753 251 752T234 750H189Z" />
<glyph unicode="&#xc3;" horiz-adv-x="704" d="M33 0Q24 0 18 6T12 21Q12 26 13 30L251 673Q254 684 263 692T288 700H416Q432 700 441 692T454 673L691 30Q693 26 693 21Q693 13 687 7T671 0H566Q552 0 545 7T536 20L493 132H211L169 20Q166 14 160 7T138 0H33ZM249
261H455L352 548L249 261ZM411 745Q384 745 367 754T335 771T303 780Q290 780 284 773T273 758T257 750H204Q197 750 192 755T187 767Q187 783 192 803T211 842T244 873T293 886Q320 886 337 877T369 860T401 851Q415 851 420 858T431 873T447 881H500Q508 881
512 876T517 864Q517 848 511 828T493 789T460 758T411 745Z" />
<glyph unicode="&#xc4;" horiz-adv-x="704" d="M33 0Q24 0 18 6T12 21Q12 26 13 30L251 673Q254 684 263 692T288 700H416Q432 700 441 692T454 673L691 30Q693 26 693 21Q693 13 687 7T671 0H566Q552 0 545 7T536 20L493 132H211L169 20Q166 14 160 7T138 0H33ZM249
261H455L352 548L249 261ZM425 750Q414 750 408 756T402 773V855Q402 865 408 871T425 878H507Q517 878 523 872T530 855V773Q530 762 524 756T507 750H425ZM197 750Q187 750 181 756T175 773V855Q175 865 181 871T197 878H280Q290 878 296 872T303 855V773Q303
762 297 756T280 750H197Z" />
<glyph unicode="&#xc5;" horiz-adv-x="704" d="M33 0Q24 0 18 6T12 21Q12 26 13 30L251 673Q254 684 263 692T288 700H416Q432 700 441 692T454 673L691 30Q693 26 693 21Q693 13 687 7T671 0H566Q552 0 545 7T536 20L493 132H211L169 20Q166 14 160 7T138 0H33ZM249
261H455L352 548L249 261ZM352 740Q315 740 289 764T262 825Q262 862 288 886T352 911Q389 911 415 887T442 825Q442 788 416 764T352 740ZM352 795Q365 795 373 803T382 825Q382 838 374 846T352 855Q339 855 331 847T322 825Q322 812 330 804T352 795Z" />
<glyph unicode="&#xc6;" horiz-adv-x="964" d="M26 0Q17 0 11 6T4 21Q4 26 7 31Q17 59 27 88T52 154T88 238T138 346T207 489T299 674Q304 685 312 692T335 700H885Q896 700 903 693T910 675V595Q910 584 903 577T885 570H577V414H863Q874 414 881 407T888 389V315Q888
305 881 298T863 290H577V130H893Q904 130 911 123T918 105V25Q918 14 911 7T893 0H447Q437 0 430 7T423 25V132H219Q201 99 191 79T175 47T167 30T163 20Q159 13 153 7T132 0H26ZM262 261H423V567H406L262 261Z" />
<glyph unicode="&#xc7;" horiz-adv-x="693" d="M348 -220Q321 -220 299 -211T268 -190T268 -169L286 -153Q295 -145 301 -148T318 -158T348 -164Q363 -164 373 -155T383 -132Q383 -119 374 -110T348 -101Q335 -101 325 -104T307 -109T291 -103L272 -84Q266 -78
267 -71T274 -52L294 -6Q218 3 165 36T84 126T51 261Q50 302 50 349T51 439Q55 525 91 585T194 678T352 710Q420 710 474 693T569 644T631 569T655 473Q656 464 650 458T634 452H519Q507 452 500 457T489 477Q474 537 439 558T352 580Q291 580 255 546T216 434Q213
352 216 266Q219 188 255 154T352 120Q404 120 439 142T489 223Q493 237 500 242T519 248H634Q643 248 649 242T655 227Q654 174 632 131T569 56T475 7T352 -10L332 -51Q338 -48 348 -47T366 -45Q401 -45 422 -69T444 -131Q444 -169 419 -194T348 -220Z" />
<glyph unicode="&#xc8;" horiz-adv-x="631" d="M98 0Q88 0 81 7T74 25V675Q74 686 81 693T98 700H552Q563 700 570 693T577 675V595Q577 584 570 577T552 570H228V414H530Q541 414 548 407T555 389V315Q555 305 548 298T530 290H228V130H560Q571 130 578 123T585
105V25Q585 14 578 7T560 0H98ZM290 750Q277 750 270 753T254 764L125 869Q120 874 120 881Q120 901 139 901H262Q275 901 282 898T299 882L384 779Q389 774 389 766Q389 750 373 750H290Z" />
<glyph unicode="&#xc9;" horiz-adv-x="631" d="M98 0Q88 0 81 7T74 25V675Q74 686 81 693T98 700H552Q563 700 570 693T577 675V595Q577 584 570 577T552 570H228V414H530Q541 414 548 407T555 389V315Q555 305 548 298T530 290H228V130H560Q571 130 578 123T585
105V25Q585 14 578 7T560 0H98ZM262 750Q246 750 246 766Q246 774 251 779L336 882Q345 894 352 897T373 901H496Q515 901 515 881Q515 874 510 869L381 764Q373 757 366 754T345 750H262Z" />
<glyph unicode="&#xca;" horiz-adv-x="631" d="M98 0Q88 0 81 7T74 25V675Q74 686 81 693T98 700H552Q563 700 570 693T577 675V595Q577 584 570 577T552 570H228V414H530Q541 414 548 407T555 389V315Q555 305 548 298T530 290H228V130H560Q571 130 578 123T585
105V25Q585 14 578 7T560 0H98ZM152 750Q137 750 137 764Q137 772 145 780L245 884Q256 895 263 898T280 901H352Q361 901 368 898T386 884L486 780Q494 772 494 764Q494 750 479 750H435Q426 750 418 751T402 757L316 808L229 757Q222 753 214 752T197 750H152Z"
/>
<glyph unicode="&#xcb;" horiz-adv-x="631" d="M98 0Q88 0 81 7T74 25V675Q74 686 81 693T98 700H552Q563 700 570 693T577 675V595Q577 584 570 577T552 570H228V414H530Q541 414 548 407T555 389V315Q555 305 548 298T530 290H228V130H560Q571 130 578 123T585
105V25Q585 14 578 7T560 0H98ZM388 750Q377 750 371 756T365 773V855Q365 865 371 871T388 878H470Q480 878 486 872T493 855V773Q493 762 487 756T470 750H388ZM160 750Q150 750 144 756T138 773V855Q138 865 144 871T160 878H243Q253 878 259 872T266 855V773Q266
762 260 756T243 750H160Z" />
<glyph unicode="&#xcc;" horiz-adv-x="311" d="M98 0Q88 0 81 7T74 25V675Q74 686 81 693T98 700H213Q223 700 230 693T237 675V25Q237 14 230 7T213 0H98ZM130 750Q117 750 110 753T94 764L-35 869Q-40 874 -40 881Q-40 901 -21 901H102Q115 901 122 898T139
882L224 779Q229 774 229 766Q229 750 213 750H130Z" />
<glyph unicode="&#xcd;" horiz-adv-x="311" d="M98 0Q88 0 81 7T74 25V675Q74 686 81 693T98 700H213Q223 700 230 693T237 675V25Q237 14 230 7T213 0H98ZM358 750Q342 750 342 766Q342 774 347 779L432 882Q441 894 448 897T469 901H592Q611 901 611 881Q611
874 606 869L477 764Q469 757 462 754T441 750H358Z" />
<glyph unicode="&#xce;" horiz-adv-x="311" d="M98 0Q88 0 81 7T74 25V675Q74 686 81 693T98 700H213Q223 700 230 693T237 675V25Q237 14 230 7T213 0H98ZM248 750Q233 750 233 764Q233 772 241 780L341 884Q352 895 359 898T376 901H448Q457 901 464 898T482
884L582 780Q590 772 590 764Q590 750 575 750H531Q522 750 514 751T498 757L412 808L325 757Q318 753 310 752T293 750H248Z" />
<glyph unicode="&#xcf;" horiz-adv-x="311" d="M98 0Q88 0 81 7T74 25V675Q74 686 81 693T98 700H213Q223 700 230 693T237 675V25Q237 14 230 7T213 0H98ZM484 750Q473 750 467 756T461 773V855Q461 865 467 871T484 878H566Q576 878 582 872T589 855V773Q589
762 583 756T566 750H484ZM256 750Q246 750 240 756T234 773V855Q234 865 240 871T256 878H339Q349 878 355 872T362 855V773Q362 762 356 756T339 750H256Z" />
<glyph unicode="&#xd0;" horiz-adv-x="726" d="M114 0Q103 0 96 7T89 25V297H39Q29 297 22 304T14 322V382Q14 392 21 399T39 406H89V675Q89 686 96 693T114 700H365Q465 700 533 669T636 577T673 427Q673 387 673 351T673 274Q672 181 638 120T536 30T368 0H114ZM249
130H365Q416 130 447 144T493 191T508 276Q509 303 509 326T509 374T508 425Q507 500 473 535T363 570H249V406H350Q361 406 368 399T375 382V322Q375 311 368 304T350 297H249V130Z" />
<glyph unicode="&#xd1;" horiz-adv-x="713" d="M98 0Q88 0 81 7T74 25V675Q74 686 81 693T98 700H190Q205 700 212 693T221 682L487 266V675Q487 686 494 693T512 700H614Q625 700 632 693T639 675V25Q639 15 632 8T614 0H522Q507 0 500 7T491 18L226 421V25Q226
14 219 7T201 0H98ZM415 745Q388 745 371 754T339 771T307 780Q294 780 288 773T277 758T261 750H208Q201 750 196 755T191 767Q191 783 196 803T215 842T248 873T297 886Q324 886 341 877T373 860T405 851Q419 851 424 858T435 873T451 881H504Q512 881 516 876T521
864Q521 848 515 828T497 789T464 758T415 745Z" />
<glyph unicode="&#xd2;" horiz-adv-x="703" d="M352 -10Q261 -10 195 20T92 110T52 263Q51 306 51 348T52 435Q55 525 92 586T196 679T352 710Q440 710 506 679T611 587T652 435Q654 391 654 349T652 263Q649 171 612 111T508 20T352 -10ZM352 120Q410 120 447
155T487 268Q489 312 489 350T487 432Q486 484 468 517T421 565T352 580Q314 580 284 565T236 517T216 432Q215 389 215 351T216 268Q219 190 256 155T352 120ZM326 750Q313 750 306 753T290 764L161 869Q156 874 156 881Q156 901 175 901H298Q311 901 318 898T335
882L420 779Q425 774 425 766Q425 750 409 750H326Z" />
<glyph unicode="&#xd3;" horiz-adv-x="703" d="M352 -10Q261 -10 195 20T92 110T52 263Q51 306 51 348T52 435Q55 525 92 586T196 679T352 710Q440 710 506 679T611 587T652 435Q654 391 654 349T652 263Q649 171 612 111T508 20T352 -10ZM352 120Q410 120 447
155T487 268Q489 312 489 350T487 432Q486 484 468 517T421 565T352 580Q314 580 284 565T236 517T216 432Q215 389 215 351T216 268Q219 190 256 155T352 120ZM298 750Q282 750 282 766Q282 774 287 779L372 882Q381 894 388 897T409 901H532Q551 901 551 881Q551
874 546 869L417 764Q409 757 402 754T381 750H298Z" />
<glyph unicode="&#xd4;" horiz-adv-x="703" d="M352 -10Q261 -10 195 20T92 110T52 263Q51 306 51 348T52 435Q55 525 92 586T196 679T352 710Q440 710 506 679T611 587T652 435Q654 391 654 349T652 263Q649 171 612 111T508 20T352 -10ZM352 120Q410 120 447
155T487 268Q489 312 489 350T487 432Q486 484 468 517T421 565T352 580Q314 580 284 565T236 517T216 432Q215 389 215 351T216 268Q219 190 256 155T352 120ZM188 750Q173 750 173 764Q173 772 181 780L281 884Q292 895 299 898T316 901H388Q397 901 404 898T422
884L522 780Q530 772 530 764Q530 750 515 750H471Q462 750 454 751T438 757L352 808L265 757Q258 753 250 752T233 750H188Z" />
<glyph unicode="&#xd5;" horiz-adv-x="703" d="M352 -10Q261 -10 195 20T92 110T52 263Q51 306 51 348T52 435Q55 525 92 586T196 679T352 710Q440 710 506 679T611 587T652 435Q654 391 654 349T652 263Q649 171 612 111T508 20T352 -10ZM352 120Q410 120 447
155T487 268Q489 312 489 350T487 432Q486 484 468 517T421 565T352 580Q314 580 284 565T236 517T216 432Q215 389 215 351T216 268Q219 190 256 155T352 120ZM410 745Q383 745 366 754T334 771T302 780Q289 780 283 773T272 758T256 750H203Q196 750 191 755T186
767Q186 783 191 803T210 842T243 873T292 886Q319 886 336 877T368 860T400 851Q414 851 419 858T430 873T446 881H499Q507 881 511 876T516 864Q516 848 510 828T492 789T459 758T410 745Z" />
<glyph unicode="&#xd6;" horiz-adv-x="703" d="M352 -10Q261 -10 195 20T92 110T52 263Q51 306 51 348T52 435Q55 525 92 586T196 679T352 710Q440 710 506 679T611 587T652 435Q654 391 654 349T652 263Q649 171 612 111T508 20T352 -10ZM352 120Q410 120 447
155T487 268Q489 312 489 350T487 432Q486 484 468 517T421 565T352 580Q314 580 284 565T236 517T216 432Q215 389 215 351T216 268Q219 190 256 155T352 120ZM424 750Q413 750 407 756T401 773V855Q401 865 407 871T424 878H506Q516 878 522 872T529 855V773Q529
762 523 756T506 750H424ZM196 750Q186 750 180 756T174 773V855Q174 865 180 871T196 878H279Q289 878 295 872T302 855V773Q302 762 296 756T279 750H196Z" />
<glyph unicode="&#xd7;" horiz-adv-x="592" d="M125 94L57 161Q50 169 50 179T57 196L193 333L57 470Q50 477 50 487T57 504L125 572Q132 579 142 579T159 572L296 435L432 571Q440 579 449 579T467 571L535 504Q542 497 542 487T535 469L398 333L535 197Q542
189 542 179T535 162L467 94Q459 87 450 87T432 94L296 230L159 94Q152 87 142 87T125 94Z" />
<glyph unicode="&#xd8;" horiz-adv-x="733" d="M368 -10Q253 -10 179 39T81 187L44 173Q37 170 32 170Q23 170 18 175T12 190V255Q12 267 17 273T34 284L67 297Q66 332 66 366T68 435Q72 525 109 586T213 679T368 710Q474 710 548 664T650 525L690 540Q698 543
702 543Q710 543 716 538T722 524V459Q722 447 717 441T700 430L669 418Q670 378 670 340T668 263Q665 171 628 111T525 20T368 -10ZM368 120Q427 120 464 155T504 268Q504 293 504 312T505 354L234 248Q241 181 277 151T368 120ZM231 362L499 466Q490 526 455
553T368 580Q330 580 300 565T253 517T233 432Q232 412 232 396T231 362Z" />
<glyph unicode="&#xd9;" horiz-adv-x="719" d="M360 -10Q272 -10 206 19T104 110T68 267V675Q68 686 75 693T92 700H202Q213 700 220 693T227 675V268Q227 195 262 159T360 123Q422 123 457 159T492 268V675Q492 686 499 693T517 700H627Q637 700 644 693T651
675V267Q651 172 616 111T515 20T360 -10ZM334 750Q321 750 314 753T298 764L169 869Q164 874 164 881Q164 901 183 901H306Q319 901 326 898T343 882L428 779Q433 774 433 766Q433 750 417 750H334Z" />
<glyph unicode="&#xda;" horiz-adv-x="719" d="M360 -10Q272 -10 206 19T104 110T68 267V675Q68 686 75 693T92 700H202Q213 700 220 693T227 675V268Q227 195 262 159T360 123Q422 123 457 159T492 268V675Q492 686 499 693T517 700H627Q637 700 644 693T651
675V267Q651 172 616 111T515 20T360 -10ZM306 750Q290 750 290 766Q290 774 295 779L380 882Q389 894 396 897T417 901H540Q559 901 559 881Q559 874 554 869L425 764Q417 757 410 754T389 750H306Z" />
<glyph unicode="&#xdb;" horiz-adv-x="719" d="M360 -10Q272 -10 206 19T104 110T68 267V675Q68 686 75 693T92 700H202Q213 700 220 693T227 675V268Q227 195 262 159T360 123Q422 123 457 159T492 268V675Q492 686 499 693T517 700H627Q637 700 644 693T651
675V267Q651 172 616 111T515 20T360 -10ZM196 750Q181 750 181 764Q181 772 189 780L289 884Q300 895 307 898T324 901H396Q405 901 412 898T430 884L530 780Q538 772 538 764Q538 750 523 750H479Q470 750 462 751T446 757L360 808L273 757Q266 753 258 752T241
750H196Z" />
<glyph unicode="&#xdc;" horiz-adv-x="719" d="M360 -10Q272 -10 206 19T104 110T68 267V675Q68 686 75 693T92 700H202Q213 700 220 693T227 675V268Q227 195 262 159T360 123Q422 123 457 159T492 268V675Q492 686 499 693T517 700H627Q637 700 644 693T651
675V267Q651 172 616 111T515 20T360 -10ZM432 750Q421 750 415 756T409 773V855Q409 865 415 871T432 878H514Q524 878 530 872T537 855V773Q537 762 531 756T514 750H432ZM204 750Q194 750 188 756T182 773V855Q182 865 188 871T204 878H287Q297 878 303 872T310
855V773Q310 762 304 756T287 750H204Z" />
<glyph unicode="&#xdd;" horiz-adv-x="672" d="M281 0Q270 0 263 7T256 25V245L22 668Q21 671 20 673T19 679Q19 687 25 693T40 700H147Q160 700 168 693T179 680L336 405L493 680Q496 686 504 693T526 700H632Q641 700 647 694T653 679Q653 676 653 674T650 668L416
245V25Q416 14 409 7T391 0H281ZM282 750Q266 750 266 766Q266 774 271 779L356 882Q365 894 372 897T393 901H516Q535 901 535 881Q535 874 530 869L401 764Q393 757 386 754T365 750H282Z" />
<glyph unicode="&#xde;" horiz-adv-x="670" d="M98 0Q88 0 81 7T74 25V675Q74 686 81 693T98 700H214Q224 700 231 693T238 675V580H370Q452 580 512 555T606 480T639 353Q639 277 606 228T513 155T370 131H238V25Q238 14 231 7T213 0H98ZM236 255H367Q418 255
446 280T474 354Q474 398 449 426T367 455H236V255Z" />
<glyph unicode="&#xdf;" horiz-adv-x="627" d="M88 0Q77 0 70 7T63 25V476Q63 541 89 593T170 678T313 710Q401 710 455 681T533 608T558 515Q558 480 548 454T522 408T484 376Q521 362 544 338T577 281T588 209Q588 173 574 137T529 69T452 19T339 0H284Q271
0 264 7T257 25V90Q257 101 264 108T284 115H317Q371 115 401 143T431 215Q431 258 402 287T315 316H282Q269 316 263 323T257 340V397Q257 408 262 415T282 422H310Q361 423 387 445T414 508Q414 545 387 570T313 595Q267 595 240 567T212 477V25Q212 14 205 7T188
0H88Z" />
<glyph unicode="&#xe0;" horiz-adv-x="580" d="M216 -10Q163 -10 121 10T54 66T29 144Q29 215 86 256T238 312L369 331V349Q369 388 351 409T288 430Q255 430 236 417T205 383Q197 370 181 370H86Q75 370 69 376T64 392Q64 409 77 432T117 477T186 515T289 530Q352
530 397 515T469 473T509 411T522 334V25Q522 14 515 7T498 0H399Q389 0 382 7T375 25V62Q362 43 340 27T288 0T216 -10ZM256 94Q289 94 315 108T356 151T371 224V241L278 226Q225 217 200 199T175 155Q175 136 186 123T216 102T256 94ZM265 595Q251 595 244 598T228
609L99 714Q94 719 94 726Q94 746 113 746H229Q242 746 249 743T266 727L351 624Q356 619 356 611Q356 595 340 595H265Z" />
<glyph unicode="&#xe1;" horiz-adv-x="580" d="M216 -10Q163 -10 121 10T54 66T29 144Q29 215 86 256T238 312L369 331V349Q369 388 351 409T288 430Q255 430 236 417T205 383Q197 370 181 370H86Q75 370 69 376T64 392Q64 409 77 432T117 477T186 515T289 530Q352
530 397 515T469 473T509 411T522 334V25Q522 14 515 7T498 0H399Q389 0 382 7T375 25V62Q362 43 340 27T288 0T216 -10ZM256 94Q289 94 315 108T356 151T371 224V241L278 226Q225 217 200 199T175 155Q175 136 186 123T216 102T256 94ZM230 595Q214 595 214 611Q214
619 219 624L304 727Q313 739 320 742T341 746H456Q475 746 475 726Q475 719 470 714L342 609Q334 602 326 599T305 595H230Z" />
<glyph unicode="&#xe2;" horiz-adv-x="580" d="M216 -10Q163 -10 121 10T54 66T29 144Q29 215 86 256T238 312L369 331V349Q369 388 351 409T288 430Q255 430 236 417T205 383Q197 370 181 370H86Q75 370 69 376T64 392Q64 409 77 432T117 477T186 515T289 530Q352
530 397 515T469 473T509 411T522 334V25Q522 14 515 7T498 0H399Q389 0 382 7T375 25V62Q362 43 340 27T288 0T216 -10ZM256 94Q289 94 315 108T356 151T371 224V241L278 226Q225 217 200 199T175 155Q175 136 186 123T216 102T256 94ZM124 595Q109 595 109 609Q109
617 117 625L217 729Q227 740 234 743T252 746H318Q328 746 335 743T353 729L453 625Q461 617 461 609Q461 595 446 595H404Q396 595 388 596T371 602L285 653L199 602Q192 598 183 597T166 595H124Z" />
<glyph unicode="&#xe3;" horiz-adv-x="580" d="M216 -10Q163 -10 121 10T54 66T29 144Q29 215 86 256T238 312L369 331V349Q369 388 351 409T288 430Q255 430 236 417T205 383Q197 370 181 370H86Q75 370 69 376T64 392Q64 409 77 432T117 477T186 515T289 530Q352
530 397 515T469 473T509 411T522 334V25Q522 14 515 7T498 0H399Q389 0 382 7T375 25V62Q362 43 340 27T288 0T216 -10ZM256 94Q289 94 315 108T356 151T371 224V241L278 226Q225 217 200 199T175 155Q175 136 186 123T216 102T256 94ZM343 590Q317 590 300 599T270
616T239 625Q226 625 220 618T209 603T193 595H140Q133 595 128 600T123 612Q123 628 128 648T146 686T179 716T227 728Q254 728 271 720T302 702T332 693Q346 693 351 701T362 716T378 724H431Q439 724 443 719T448 706Q448 691 443 671T425 633T392 602T343 590Z"
/>
<glyph unicode="&#xe4;" horiz-adv-x="580" d="M216 -10Q163 -10 121 10T54 66T29 144Q29 215 86 256T238 312L369 331V349Q369 388 351 409T288 430Q255 430 236 417T205 383Q197 370 181 370H86Q75 370 69 376T64 392Q64 409 77 432T117 477T186 515T289 530Q352
530 397 515T469 473T509 411T522 334V25Q522 14 515 7T498 0H399Q389 0 382 7T375 25V62Q362 43 340 27T288 0T216 -10ZM256 94Q289 94 315 108T356 151T371 224V241L278 226Q225 217 200 199T175 155Q175 136 186 123T216 102T256 94ZM346 611Q335 611 329 617T323
633V715Q323 725 329 731T346 738H428Q438 738 444 732T451 715V633Q451 623 445 617T428 611H346ZM148 611Q138 611 132 617T126 633V715Q126 725 132 731T148 738H231Q241 738 247 732T254 715V633Q254 623 248 617T231 611H148Z" />
<glyph unicode="&#xe5;" horiz-adv-x="580" d="M216 -10Q163 -10 121 10T54 66T29 144Q29 215 86 256T238 312L369 331V349Q369 388 351 409T288 430Q255 430 236 417T205 383Q197 370 181 370H86Q75 370 69 376T64 392Q64 409 77 432T117 477T186 515T289 530Q352
530 397 515T469 473T509 411T522 334V25Q522 14 515 7T498 0H399Q389 0 382 7T375 25V62Q362 43 340 27T288 0T216 -10ZM256 94Q289 94 315 108T356 151T371 224V241L278 226Q225 217 200 199T175 155Q175 136 186 123T216 102T256 94ZM285 590Q248 590 222 614T195
675Q195 712 221 736T285 761Q322 761 348 737T375 675Q375 638 349 614T285 590ZM285 645Q298 645 306 653T315 675Q315 688 307 696T285 705Q272 705 264 697T255 675Q255 662 263 654T285 645Z" />
<glyph unicode="&#xe6;" horiz-adv-x="909" d="M227 -10Q166 -10 122 10T54 66T30 144Q30 215 87 257T238 313L370 333V350Q370 389 352 409T288 430Q262 430 245 421T215 401T192 380Q189 374 186 372T178 370H86Q76 370 70 376T64 392Q64 409 76 432T116 477T186
515T289 530Q355 530 395 513T456 468Q486 496 526 513T620 530Q692 530 740 507T816 444T858 359T871 265V242Q871 232 864 225T846 217H524V210Q525 168 538 143T573 105T619 93Q642 93 663 103T701 134Q709 144 715 147T732 150H836Q857 150 857 129Q857 113
843 90T799 44T725 6T620 -10Q553 -10 505 13T428 75Q390 28 338 9T227 -10ZM257 94Q289 94 315 108T356 151T371 224V241L278 226Q225 217 200 199T175 155Q175 136 186 123T217 102T257 94ZM524 309H715V313Q715 366 692 398T620 430Q595 430 574 418T539 379T524
313V309Z" />
<glyph unicode="&#xe7;" horiz-adv-x="580" d="M294 -220Q267 -220 245 -211T214 -190T214 -169L232 -153Q241 -145 247 -148T264 -158T294 -164Q309 -164 319 -155T329 -132Q329 -119 320 -110T294 -101Q281 -101 271 -104T253 -109T237 -103L218 -84Q212 -78
213 -71T219 -52L240 -6Q153 8 100 66T43 219Q42 235 42 259T43 300Q46 373 77 424T165 503T295 530Q361 530 408 512T485 465T530 406T546 353Q547 342 539 335T521 328H414Q403 328 398 333T387 349Q374 384 352 399T297 414Q252 414 227 385T199 295Q197 256
199 224Q201 162 226 134T297 106Q332 106 353 121T387 171Q392 182 397 187T414 192H521Q531 192 539 185T546 167Q545 146 531 116T488 58T413 10T298 -10L278 -51Q284 -48 294 -47T312 -45Q347 -45 368 -69T390 -131Q390 -169 365 -194T294 -220Z" />
<glyph unicode="&#xe8;" horiz-adv-x="586" d="M295 -10Q180 -10 113 54T41 240Q41 248 41 261T41 282Q45 360 76 415T163 500T294 530Q379 530 435 496T519 402T548 265V242Q548 232 541 225T523 217H197Q197 217 197 215T197 210Q198 178 209 152T241 109T294
93Q318 93 334 100T360 117T376 134Q385 145 390 147T407 150H513Q522 150 528 144T534 129Q533 112 518 89T472 43T398 5T295 -10ZM197 309H392V312Q392 347 381 373T347 415T294 430Q263 430 242 415T209 374T197 312V309ZM272 595Q258 595 251 598T235 609L106
714Q101 719 101 726Q101 746 120 746H236Q249 746 256 743T273 727L358 624Q363 619 363 611Q363 595 347 595H272Z" />
<glyph unicode="&#xe9;" horiz-adv-x="586" d="M295 -10Q180 -10 113 54T41 240Q41 248 41 261T41 282Q45 360 76 415T163 500T294 530Q379 530 435 496T519 402T548 265V242Q548 232 541 225T523 217H197Q197 217 197 215T197 210Q198 178 209 152T241 109T294
93Q318 93 334 100T360 117T376 134Q385 145 390 147T407 150H513Q522 150 528 144T534 129Q533 112 518 89T472 43T398 5T295 -10ZM197 309H392V312Q392 347 381 373T347 415T294 430Q263 430 242 415T209 374T197 312V309ZM245 595Q229 595 229 611Q229 619 234
624L319 727Q328 739 335 742T356 746H471Q490 746 490 726Q490 719 485 714L357 609Q349 602 341 599T320 595H245Z" />
<glyph unicode="&#xea;" horiz-adv-x="586" d="M295 -10Q180 -10 113 54T41 240Q41 248 41 261T41 282Q45 360 76 415T163 500T294 530Q379 530 435 496T519 402T548 265V242Q548 232 541 225T523 217H197Q197 217 197 215T197 210Q198 178 209 152T241 109T294
93Q318 93 334 100T360 117T376 134Q385 145 390 147T407 150H513Q522 150 528 144T534 129Q533 112 518 89T472 43T398 5T295 -10ZM197 309H392V312Q392 347 381 373T347 415T294 430Q263 430 242 415T209 374T197 312V309ZM133 595Q118 595 118 609Q118 617 126
625L226 729Q236 740 243 743T261 746H327Q337 746 344 743T362 729L462 625Q470 617 470 609Q470 595 455 595H413Q405 595 397 596T380 602L294 653L208 602Q201 598 192 597T175 595H133Z" />
<glyph unicode="&#xeb;" horiz-adv-x="586" d="M295 -10Q180 -10 113 54T41 240Q41 248 41 261T41 282Q45 360 76 415T163 500T294 530Q379 530 435 496T519 402T548 265V242Q548 232 541 225T523 217H197Q197 217 197 215T197 210Q198 178 209 152T241 109T294
93Q318 93 334 100T360 117T376 134Q385 145 390 147T407 150H513Q522 150 528 144T534 129Q533 112 518 89T472 43T398 5T295 -10ZM197 309H392V312Q392 347 381 373T347 415T294 430Q263 430 242 415T209 374T197 312V309ZM352 611Q341 611 335 617T329 633V715Q329
725 335 731T352 738H434Q444 738 450 732T457 715V633Q457 623 451 617T434 611H352ZM154 611Q144 611 138 617T132 633V715Q132 725 138 731T154 738H237Q247 738 253 732T260 715V633Q260 623 254 617T237 611H154Z" />
<glyph unicode="&#xec;" horiz-adv-x="275" d="M87 0Q77 0 70 7T62 25V495Q62 506 69 513T87 520H188Q198 520 205 513T212 495V25Q212 14 205 7T188 0H87ZM369 595Q355 595 348 598T332 609L203 714Q198 719 198 726Q198 746 217 746H333Q346 746 353 743T370
727L455 624Q460 619 460 611Q460 595 444 595H369Z" />
<glyph unicode="&#xed;" horiz-adv-x="275" d="M87 0Q77 0 70 7T62 25V495Q62 506 69 513T87 520H188Q198 520 205 513T212 495V25Q212 14 205 7T188 0H87ZM88 595Q72 595 72 611Q72 619 77 624L162 727Q171 739 178 742T199 746H314Q333 746 333 726Q333 719
328 714L200 609Q192 602 184 599T163 595H88Z" />
<glyph unicode="&#xee;" horiz-adv-x="275" d="M87 0Q77 0 70 7T62 25V495Q62 506 69 513T87 520H188Q198 520 205 513T212 495V25Q212 14 205 7T188 0H87ZM232 595Q217 595 217 609Q217 617 225 625L325 729Q335 740 342 743T360 746H426Q436 746 443 743T461
729L561 625Q569 617 569 609Q569 595 554 595H512Q504 595 496 596T479 602L393 653L307 602Q300 598 291 597T274 595H232Z" />
<glyph unicode="&#xef;" horiz-adv-x="275" d="M87 0Q77 0 70 7T62 25V495Q62 506 69 513T87 520H188Q198 520 205 513T212 495V25Q212 14 205 7T188 0H87ZM451 611Q440 611 434 617T428 633V715Q428 725 434 731T451 738H533Q543 738 549 732T556 715V633Q556
623 550 617T533 611H451ZM253 611Q243 611 237 617T231 633V715Q231 725 237 731T253 738H336Q346 738 352 732T359 715V633Q359 623 353 617T336 611H253Z" />
<glyph unicode="&#xf0;" horiz-adv-x="595" d="M295 -10Q215 -10 158 18T71 101T40 230Q40 306 71 359T161 441T295 470Q317 470 334 465T366 451Q349 499 319 538L212 496Q205 493 200 493Q192 493 186 498T180 513V537Q180 549 185 555T202 566L270 592Q253
609 233 626T191 659Q183 665 180 670T176 679Q176 688 182 694T197 700H304Q320 700 331 696T349 687Q362 676 375 665T399 642L491 678Q499 681 503 681Q511 681 517 676T523 661V637Q523 625 518 619T501 608L450 588Q495 532 521 454T551 261Q551 253 551 244T551
227Q549 154 518 101T431 19T295 -10ZM295 101Q329 101 351 116T384 157T395 215Q395 223 395 229T395 244Q394 277 384 303T353 344T295 359Q261 359 239 344T207 303T195 244Q195 236 195 230T195 215Q196 183 206 157T239 116T295 101Z" />
<glyph unicode="&#xf1;" horiz-adv-x="633" d="M87 0Q77 0 70 7T62 25V495Q62 506 69 513T87 520H185Q196 520 203 513T210 495V456Q236 488 277 509T377 530Q436 530 481 504T551 427T576 304V25Q576 14 569 7T551 0H445Q434 0 427 7T420 25V298Q420 351 395
380T320 410Q273 410 246 381T218 298V25Q218 14 211 7T193 0H87ZM377 590Q351 590 334 599T304 616T273 625Q260 625 254 618T243 603T227 595H174Q167 595 162 600T157 612Q157 628 162 648T180 686T213 716T261 728Q288 728 305 720T336 702T366 693Q380 693
385 701T396 716T412 724H465Q473 724 477 719T482 706Q482 691 477 671T459 633T426 602T377 590Z" />
<glyph unicode="&#xf2;" horiz-adv-x="601" d="M301 -10Q218 -10 162 17T77 96T44 215Q43 235 43 260T44 305Q47 374 78 424T165 502T301 530Q380 530 436 503T523 425T558 305Q559 286 559 261T558 215Q554 147 525 96T439 18T301 -10ZM301 101Q350 101 374 131T402
220Q403 235 403 260T402 300Q399 358 375 388T301 419Q252 419 227 389T199 300Q198 285 198 260T199 220Q202 161 227 131T301 101ZM277 595Q263 595 256 598T240 609L111 714Q106 719 106 726Q106 746 125 746H241Q254 746 261 743T278 727L363 624Q368 619
368 611Q368 595 352 595H277Z" />
<glyph unicode="&#xf3;" horiz-adv-x="601" d="M301 -10Q218 -10 162 17T77 96T44 215Q43 235 43 260T44 305Q47 374 78 424T165 502T301 530Q380 530 436 503T523 425T558 305Q559 286 559 261T558 215Q554 147 525 96T439 18T301 -10ZM301 101Q350 101 374 131T402
220Q403 235 403 260T402 300Q399 358 375 388T301 419Q252 419 227 389T199 300Q198 285 198 260T199 220Q202 161 227 131T301 101ZM249 595Q233 595 233 611Q233 619 238 624L323 727Q332 739 339 742T360 746H475Q494 746 494 726Q494 719 489 714L361 609Q353
602 345 599T324 595H249Z" />
<glyph unicode="&#xf4;" horiz-adv-x="601" d="M301 -10Q218 -10 162 17T77 96T44 215Q43 235 43 260T44 305Q47 374 78 424T165 502T301 530Q380 530 436 503T523 425T558 305Q559 286 559 261T558 215Q554 147 525 96T439 18T301 -10ZM301 101Q350 101 374 131T402
220Q403 235 403 260T402 300Q399 358 375 388T301 419Q252 419 227 389T199 300Q198 285 198 260T199 220Q202 161 227 131T301 101ZM140 595Q125 595 125 609Q125 617 133 625L233 729Q243 740 250 743T268 746H334Q344 746 351 743T369 729L469 625Q477 617
477 609Q477 595 462 595H420Q412 595 404 596T387 602L301 653L215 602Q208 598 199 597T182 595H140Z" />
<glyph unicode="&#xf5;" horiz-adv-x="601" d="M301 -10Q218 -10 162 17T77 96T44 215Q43 235 43 260T44 305Q47 374 78 424T165 502T301 530Q380 530 436 503T523 425T558 305Q559 286 559 261T558 215Q554 147 525 96T439 18T301 -10ZM301 101Q350 101 374 131T402
220Q403 235 403 260T402 300Q399 358 375 388T301 419Q252 419 227 389T199 300Q198 285 198 260T199 220Q202 161 227 131T301 101ZM359 590Q333 590 316 599T286 616T255 625Q242 625 236 618T225 603T209 595H156Q149 595 144 600T139 612Q139 628 144 648T162
686T195 716T243 728Q270 728 287 720T318 702T348 693Q362 693 367 701T378 716T394 724H447Q455 724 459 719T464 706Q464 691 459 671T441 633T408 602T359 590Z" />
<glyph unicode="&#xf6;" horiz-adv-x="601" d="M301 -10Q218 -10 162 17T77 96T44 215Q43 235 43 260T44 305Q47 374 78 424T165 502T301 530Q380 530 436 503T523 425T558 305Q559 286 559 261T558 215Q554 147 525 96T439 18T301 -10ZM301 101Q350 101 374 131T402
220Q403 235 403 260T402 300Q399 358 375 388T301 419Q252 419 227 389T199 300Q198 285 198 260T199 220Q202 161 227 131T301 101ZM359 611Q348 611 342 617T336 633V715Q336 725 342 731T359 738H441Q451 738 457 732T464 715V633Q464 623 458 617T441 611H359ZM161
611Q151 611 145 617T139 633V715Q139 725 145 731T161 738H244Q254 738 260 732T267 715V633Q267 623 261 617T244 611H161Z" />
<glyph unicode="&#xf7;" horiz-adv-x="540" d="M75 243Q64 243 57 250T50 267V334Q50 344 57 351T75 358H465Q476 358 483 351T490 334V267Q490 257 483 250T465 243H75ZM226 51Q216 51 209 58T201 76V158Q201 168 208 175T226 183H313Q324 183 331 176T338 158V76Q338
65 331 58T313 51H226ZM226 419Q216 419 209 426T201 443V525Q201 536 208 543T226 550H313Q324 550 331 543T338 525V443Q338 433 331 426T313 419H226Z" />
<glyph unicode="&#xf8;" horiz-adv-x="632" d="M317 -10Q253 -10 206 6T128 53T80 123L43 109Q36 106 31 106Q23 106 17 111T11 125V170Q11 182 16 188T33 199L60 209Q59 233 59 257T60 305Q62 353 78 394T127 465T206 513T317 530Q380 530 426 514T502 468T550
399L588 414Q596 417 600 417Q608 417 614 412T620 397V353Q620 341 615 335T598 324L573 314Q575 294 575 265T574 215Q571 167 555 126T508 55T430 7T317 -10ZM317 101Q347 101 368 112T403 150T418 218Q418 224 418 235T418 254L220 177Q229 137 254 119T317
101ZM215 269L412 345Q403 385 378 402T317 419Q287 419 266 408T231 373T215 309Q215 302 215 290T215 269Z" />
<glyph unicode="&#xf9;" horiz-adv-x="631" d="M254 -10Q196 -10 152 16T82 93T57 216V495Q57 506 64 513T82 520H189Q199 520 206 513T213 495V222Q213 110 311 110Q358 110 385 139T413 222V495Q413 506 420 513T438 520H544Q554 520 561 513T568 495V25Q568
14 561 7T544 0H445Q435 0 428 7T421 25V64Q395 28 354 9T254 -10ZM288 595Q274 595 267 598T251 609L122 714Q117 719 117 726Q117 746 136 746H252Q265 746 272 743T289 727L374 624Q379 619 379 611Q379 595 363 595H288Z" />
<glyph unicode="&#xfa;" horiz-adv-x="631" d="M254 -10Q196 -10 152 16T82 93T57 216V495Q57 506 64 513T82 520H189Q199 520 206 513T213 495V222Q213 110 311 110Q358 110 385 139T413 222V495Q413 506 420 513T438 520H544Q554 520 561 513T568 495V25Q568
14 561 7T544 0H445Q435 0 428 7T421 25V64Q395 28 354 9T254 -10ZM263 595Q247 595 247 611Q247 619 252 624L337 727Q346 739 353 742T374 746H489Q508 746 508 726Q508 719 503 714L375 609Q367 602 359 599T338 595H263Z" />
<glyph unicode="&#xfb;" horiz-adv-x="631" d="M254 -10Q196 -10 152 16T82 93T57 216V495Q57 506 64 513T82 520H189Q199 520 206 513T213 495V222Q213 110 311 110Q358 110 385 139T413 222V495Q413 506 420 513T438 520H544Q554 520 561 513T568 495V25Q568
14 561 7T544 0H445Q435 0 428 7T421 25V64Q395 28 354 9T254 -10ZM152 595Q137 595 137 609Q137 617 145 625L245 729Q255 740 262 743T280 746H346Q356 746 363 743T381 729L481 625Q489 617 489 609Q489 595 474 595H432Q424 595 416 596T399 602L313 653L227
602Q220 598 211 597T194 595H152Z" />
<glyph unicode="&#xfc;" horiz-adv-x="631" d="M254 -10Q196 -10 152 16T82 93T57 216V495Q57 506 64 513T82 520H189Q199 520 206 513T213 495V222Q213 110 311 110Q358 110 385 139T413 222V495Q413 506 420 513T438 520H544Q554 520 561 513T568 495V25Q568
14 561 7T544 0H445Q435 0 428 7T421 25V64Q395 28 354 9T254 -10ZM371 611Q360 611 354 617T348 633V715Q348 725 354 731T371 738H453Q463 738 469 732T476 715V633Q476 623 470 617T453 611H371ZM173 611Q163 611 157 617T151 633V715Q151 725 157 731T173 738H256Q266
738 272 732T279 715V633Q279 623 273 617T256 611H173Z" />
<glyph unicode="&#xfd;" horiz-adv-x="586" d="M158 -190Q150 -190 144 -184T137 -169Q137 -167 138 -164T141 -155L219 32L27 485Q24 493 24 498Q25 507 31 513T46 520H144Q156 520 162 514T171 500L295 191L422 500Q426 508 432 514T451 520H546Q555 520 561
514T568 499Q568 494 565 485L282 -170Q278 -178 272 -184T252 -190H158ZM247 595Q231 595 231 611Q231 619 236 624L321 727Q330 739 337 742T358 746H473Q492 746 492 726Q492 719 487 714L359 609Q351 602 343 599T322 595H247Z" />
<glyph unicode="&#xfe;" horiz-adv-x="623" d="M88 -190Q78 -190 71 -183T63 -165V685Q63 696 70 703T88 710H192Q202 710 209 703T216 685V462Q240 494 274 512T366 530Q417 530 455 514T521 467T562 393T579 296Q580 277 580 260T579 223Q578 172 563 129T522
55T456 7T366 -10Q314 -10 277 8T216 59V-165Q216 -176 209 -183T192 -190H88ZM320 110Q359 110 380 126T411 170T423 229Q425 260 423 291Q421 323 412 350T381 393T320 410Q284 410 261 393T228 350T216 294Q215 276 215 257T216 219Q217 191 228 167T262 126T320
110Z" />
<glyph unicode="&#xff;" horiz-adv-x="586" d="M158 -190Q150 -190 144 -184T137 -169Q137 -167 138 -164T141 -155L219 32L27 485Q24 493 24 498Q25 507 31 513T46 520H144Q156 520 162 514T171 500L295 191L422 500Q426 508 432 514T451 520H546Q555 520 561
514T568 499Q568 494 565 485L282 -170Q278 -178 272 -184T252 -190H158ZM353 611Q342 611 336 617T330 633V715Q330 725 336 731T353 738H435Q445 738 451 732T458 715V633Q458 623 452 617T435 611H353ZM155 611Q145 611 139 617T133 633V715Q133 725 139 731T155
738H238Q248 738 254 732T261 715V633Q261 623 255 617T238 611H155Z" />
<glyph unicode="&#x2013;" horiz-adv-x="569" d="M84 235Q74 235 67 242T60 260V340Q60 351 67 358T84 365H485Q495 365 502 358T509 340V260Q509 249 502 242T485 235H84Z" />
<glyph unicode="&#x2014;" horiz-adv-x="759" d="M84 235Q74 235 67 242T60 260V340Q60 351 67 358T84 365H675Q685 365 692 358T699 340V260Q699 249 692 242T675 235H84Z" />
<glyph unicode="&#x2018;" horiz-adv-x="261" d="M55 472Q47 472 42 478T36 491Q36 498 39 504L109 683Q113 693 120 701T143 710H204Q212 710 218 704T222 687L194 506Q192 493 184 483T159 472H55Z" />
<glyph unicode="&#x2019;" horiz-adv-x="255" d="M64 472Q55 472 50 478T45 495L74 677Q76 690 84 700T108 710H212Q220 710 225 704T231 691Q231 684 228 679L159 499Q155 489 148 481T124 472H64Z" />
<glyph unicode="&#x201a;" horiz-adv-x="271" d="M55 -75Q46 -75 41 -69T37 -52L66 129Q68 142 76 152T100 163H204Q212 163 217 157T223 144Q223 137 220 131L151 -48Q147 -58 139 -66T116 -75H55Z" />
<glyph unicode="&#x201c;" horiz-adv-x="466" d="M260 472Q252 472 247 478T241 491Q241 498 244 504L314 683Q318 693 325 701T349 710H409Q417 710 423 704T427 687L399 506Q397 493 389 483T364 472H260ZM55 472Q47 472 42 478T36 491Q36 498 39 504L109 683Q113
693 120 701T143 710H204Q212 710 218 704T222 687L194 506Q192 493 184 483T159 472H55Z" />
<glyph unicode="&#x201d;" horiz-adv-x="460" d="M269 472Q260 472 255 478T251 495L279 677Q281 690 289 700T313 710H417Q425 710 430 704T436 691Q436 684 434 679L364 499Q360 489 353 481T329 472H269ZM64 472Q55 472 50 478T45 495L74 677Q76 690 84 700T108
710H212Q220 710 225 704T231 691Q231 684 228 679L159 499Q155 489 148 481T124 472H64Z" />
<glyph unicode="&#x201e;" horiz-adv-x="476" d="M261 -75Q252 -75 247 -69T243 -53L271 129Q273 142 281 152T305 163H409Q417 163 422 157T428 144Q428 137 426 131L356 -48Q352 -58 345 -66T321 -75H261ZM55 -75Q47 -75 42 -69T37 -52L66 129Q68 142 76 152T100
163H204Q212 163 217 157T223 144Q223 137 220 131L151 -48Q147 -58 139 -66T116 -75H55Z" />
<glyph unicode="&#x2022;" horiz-adv-x="384" d="M192 205Q159 205 132 221T88 265T71 326Q71 359 87 386T131 430T192 446Q226 446 253 430T296 387T313 326Q313 293 297 266T253 222T192 205Z" />
<glyph unicode="&#x2039;" horiz-adv-x="348" d="M271 71Q267 71 262 73T252 80L49 277Q41 284 38 292T34 308V350Q34 358 37 366T49 381L252 578Q257 583 262 585T271 587Q280 587 286 581T292 566V485Q292 470 288 462T274 444L156 329L274 214Q284 204 288
196T292 173V92Q292 83 286 77T271 71Z" />
<glyph unicode="&#x203a;" horiz-adv-x="348" d="M77 71Q68 71 62 77T56 92V173Q56 188 60 196T74 214L191 329L74 444Q64 454 60 462T56 485V566Q56 575 62 581T77 587Q80 587 85 585T96 578L299 381Q307 374 310 366T314 350V308Q314 300 311 292T299 277L96
80Q91 75 86 73T77 71Z" />
</font>
</defs>
</svg>
