<?xml version="1.0" standalone="no"?>
<!DOCTYPE svg PUBLIC "-//W3C//DTD SVG 1.1//EN" "http://www.w3.org/Graphics/SVG/1.1/DTD/svg11.dtd" >
<svg xmlns="http://www.w3.org/2000/svg">
<metadata>Generated by IcoMoon</metadata>
<defs>
<font id="icomoon" horiz-adv-x="1024">
<font-face units-per-em="1024" ascent="960" descent="-64" />
<missing-glyph horiz-adv-x="1024" />
<glyph unicode="&#x20;" horiz-adv-x="512" d="" />
<glyph unicode="&#xe900;" glyph-name="analicis-icon" horiz-adv-x="1140" d="M1117.943-26.605h-11.886v538.473c0 4.728-1.88 9.262-5.222 12.607-3.344 3.344-7.879 5.222-12.609 5.222-4.728 0-9.264-1.878-12.607-5.222s-5.222-7.879-5.222-12.607v-538.473h-178.302v671.605c0 1.577 0.626 3.087 1.741 4.202 1.113 1.115 2.626 1.741 4.202 1.741h166.415c1.575 0 3.087-0.626 4.202-1.741s1.741-2.626 1.741-4.202v-61.811c0-4.73 1.878-9.264 5.222-12.609 3.342-3.344 7.879-5.222 12.607-5.222 4.73 0 9.264 1.878 12.609 5.222 3.342 3.344 5.222 7.879 5.222 12.609v61.811c-0.014 11.030-4.401 21.604-12.199 29.404-7.8 7.8-18.376 12.188-29.404 12.199h-166.415c-11.030-0.012-21.606-4.399-29.404-12.199-7.8-7.8-12.188-18.374-12.201-29.404v-671.605h-24.564v457.643c-0.012 11.030-4.399 21.604-12.199 29.404s-18.374 12.186-29.404 12.199h-166.415c-11.030-0.012-21.604-4.399-29.404-12.199s-12.188-18.374-12.199-29.404v-457.643h-24.568v576.51c-0.012 11.030-4.399 21.606-12.199 29.406-7.8 7.798-18.374 12.186-29.404 12.197h-166.415c-11.030-0.012-21.604-4.399-29.404-12.199s-12.188-18.374-12.199-29.404v-576.51h-24.564v267.453c-0.014 11.030-4.401 21.604-12.201 29.404s-18.374 12.188-29.404 12.199h-166.414c-11.030-0.012-21.604-4.399-29.404-12.199s-12.187-18.374-12.2-29.404v-230.603c0-4.73 1.879-9.264 5.222-12.609s7.879-5.222 12.608-5.222c4.729 0 9.264 1.878 12.608 5.222s5.222 7.879 5.222 12.609v230.603c0 1.577 0.626 3.087 1.741 4.202s2.626 1.741 4.203 1.741h166.414c1.577 0 3.089-0.626 4.204-1.741 1.113-1.115 1.739-2.626 1.739-4.202v-267.453h-225.848c-4.729 0-9.264-1.878-12.608-5.22-3.344-3.344-5.222-7.879-5.222-12.609s1.879-9.264 5.222-12.609c3.344-3.342 7.879-5.222 12.608-5.222h1095.962c4.73 0 9.264 1.88 12.609 5.222 3.342 3.344 5.222 7.879 5.222 12.609s-1.88 9.264-5.222 12.609c-3.344 3.342-7.879 5.22-12.609 5.22zM343.716-26.605v576.51c0 1.577 0.626 3.087 1.741 4.202s2.626 1.741 4.202 1.741h166.415c1.577 0 3.087-0.626 4.202-1.741s1.741-2.626 1.741-4.202v-576.51h-178.302zM617.907-26.605v457.643c0 1.577 0.626 3.087 1.741 4.202s2.626 1.741 4.202 1.741h166.415c1.577 0 3.087-0.626 4.202-1.741s1.741-2.626 1.741-4.202v-457.643h-178.302zM981.245 960c-11.326 0.002-22.458-2.939-32.306-8.535s-18.073-13.656-23.867-23.388c-5.794-9.732-8.961-20.803-9.187-32.128-0.228-11.324 2.492-22.513 7.893-32.47l-169.375-137.799c-6.339 6.689-14.023 11.96-22.545 15.462-8.522 3.505-17.69 5.164-26.9 4.869-9.21-0.294-18.254-2.537-26.535-6.579s-15.611-9.794-21.51-16.873l-158.689 76.127c0 0.283 0.021 0.563 0.021 0.849 0.012 10.019-2.282 19.906-6.7 28.897s-10.845 16.848-18.784 22.961c-7.937 6.113-17.172 10.321-26.995 12.297s-19.966 1.669-29.652-0.898c-9.684-2.568-18.648-7.326-26.201-13.909s-13.492-14.813-17.358-24.056c-3.866-9.243-5.557-19.25-4.94-29.25s3.522-19.724 8.493-28.422l-193.163-215.995c-14.667 5.881-30.966 6.26-45.891 1.065-14.924-5.193-27.467-15.609-35.313-29.327-7.846-13.716-10.468-29.808-7.38-45.305 3.088-15.499 11.676-29.356 24.181-39.018s28.081-14.477 43.857-13.554c15.775 0.922 30.685 7.518 41.978 18.571s18.208 25.818 19.468 41.571c1.262 15.752-3.217 31.429-12.609 44.138l190.346 212.837c14.487-7.912 31.435-10.043 47.429-5.962 15.996 4.081 29.852 14.069 38.779 27.955l154.564-74.147c-1.362-9.423-0.651-19.029 2.085-28.146 2.738-9.119 7.431-17.53 13.756-24.646s14.127-12.763 22.862-16.55c8.737-3.785 18.192-5.618 27.71-5.369s18.865 2.574 27.389 6.811c8.526 4.237 16.023 10.286 21.968 17.721 5.945 7.437 10.194 16.083 12.448 25.331 2.257 9.249 2.465 18.878 0.612 28.216l177.647 144.53c8.694-4.967 18.415-7.87 28.409-8.485s19.997 1.075 29.234 4.939c9.239 3.864 17.466 9.799 24.047 17.346s11.337 16.507 13.907 26.185c2.57 9.679 2.881 19.818 0.91 29.636-1.973 9.818-6.173 19.051-12.278 26.988s-13.953 14.365-22.938 18.788c-8.982 4.423-18.863 6.722-28.877 6.721zM158.679 460.756c-5.877 0-11.623 1.743-16.51 5.008s-8.696 7.906-10.945 13.335c-2.249 5.431-2.838 11.405-1.691 17.17s3.977 11.059 8.133 15.215c4.156 4.156 9.451 6.986 15.216 8.134 5.765 1.146 11.739 0.558 17.17-1.692s10.071-6.057 13.337-10.943c3.265-4.888 5.008-10.634 5.008-16.512-0.009-7.877-3.143-15.431-8.714-21.002s-13.125-8.706-21.003-8.714zM432.868 769.811c-5.877 0-11.623 1.743-16.512 5.008-4.886 3.265-8.694 7.907-10.945 13.337-2.249 5.43-2.836 11.405-1.691 17.17 1.148 5.765 3.978 11.060 8.134 15.216s9.45 6.986 15.215 8.133c5.765 1.147 11.739 0.558 17.17-1.691 5.429-2.249 10.070-6.058 13.335-10.945s5.008-10.632 5.008-16.51c-0.008-7.879-3.142-15.432-8.714-21.003-5.57-5.571-13.125-8.705-21.002-8.714zM707.057 650.943c-5.877 0-11.621 1.743-16.51 5.008-4.886 3.265-8.694 7.906-10.945 13.337-2.249 5.429-2.836 11.405-1.691 17.17 1.148 5.763 3.976 11.059 8.134 15.215 4.156 4.156 9.45 6.986 15.215 8.132 5.763 1.148 11.739 0.558 17.168-1.691 5.431-2.249 10.072-6.059 13.337-10.945s5.008-10.632 5.008-16.51c-0.008-7.879-3.142-15.431-8.714-21.004-5.57-5.57-13.125-8.704-21.004-8.714zM981.245 864.906c-5.877 0-11.623 1.743-16.51 5.008s-8.696 7.906-10.945 13.337c-2.249 5.43-2.838 11.405-1.691 17.17s3.976 11.060 8.132 15.215 9.452 6.986 15.215 8.133c5.765 1.147 11.741 0.558 17.17-1.691 5.431-2.249 10.072-6.058 13.337-10.945s5.008-10.632 5.008-16.51c-0.010-7.879-3.143-15.432-8.714-21.003s-13.125-8.705-21.004-8.714z" />
<glyph unicode="&#xe901;" glyph-name="call" d="M987.998 899.158l-197.050 45.474c-20.841 5.684-43.579-5.684-53.054-26.526l-90.947-212.21c-7.578-18.948-1.892-39.789 13.263-53.053l115.577-94.737c-68.209-144-187.575-265.263-335.366-335.369l-94.737 115.577c-13.263 15.161-34.105 20.846-53.052 13.263l-212.211-90.947c-20.842-9.469-30.316-32.207-26.526-53.049l45.474-197.055c5.684-20.841 22.737-34.105 45.474-34.105 485.053 0 879.158 392.208 879.158 879.158 0 20.842-15.155 37.894-36.002 43.579z" />
<glyph unicode="&#xe902;" glyph-name="callender" horiz-adv-x="896" d="M277.5 364c11.25 0 22.5 9.375 22.5 22.5v75c0 11.25-11.25 22.5-22.5 22.5h-75c-13.125 0-22.5-11.25-22.5-22.5v-75c0-13.125 9.375-22.5 22.5-22.5h75zM480 386.5v75c0 11.25-11.25 22.5-22.5 22.5h-75c-13.125 0-22.5-11.25-22.5-22.5v-75c0-13.125 9.375-22.5 22.5-22.5h75c11.25 0 22.5 9.375 22.5 22.5zM660 386.5v75c0 11.25-11.251 22.5-22.5 22.5h-75c-13.125 0-22.5-11.25-22.5-22.5v-75c0-13.125 9.375-22.5 22.5-22.5h75c11.249 0 22.5 9.375 22.5 22.5zM480 206.502v74.995c0 11.251-11.25 22.502-22.5 22.502h-75c-13.125 0-22.5-11.251-22.5-22.502v-74.995c0-13.126 9.375-22.502 22.5-22.502h75c11.25 0 22.5 9.376 22.5 22.502zM300 206.502v74.995c0 11.251-11.25 22.502-22.5 22.502h-75c-13.125 0-22.5-11.251-22.5-22.502v-74.995c0-13.126 9.375-22.502 22.5-22.502h75c11.25 0 22.5 9.376 22.5 22.502zM660 206.502v74.995c0 11.251-11.251 22.502-22.5 22.502h-75c-13.125 0-22.5-11.251-22.5-22.502v-74.995c0-13.126 9.375-22.502 22.5-22.502h75c11.249 0 22.5 9.376 22.5 22.502zM840 694c0 48.75-41.248 90-89.997 90h-90.003v97.5c0 11.25-11.251 22.5-22.5 22.5h-75c-13.125 0-22.5-11.25-22.5-22.5v-97.5h-240v97.5c0 11.25-11.25 22.5-22.5 22.5h-75c-13.125 0-22.5-11.25-22.5-22.5v-97.5h-90c-50.625 0-90-41.25-90-90v-660.003c0-50.624 39.375-89.997 90-89.997h660.003c48.749 0 89.997 39.373 89.997 89.997v660.003zM750.003 45.248c0-7.501-5.626-11.251-11.251-11.251h-637.502c-7.5 0-11.25 3.75-11.25 11.251v558.752h660.003v-558.752z" />
<glyph unicode="&#xe903;" glyph-name="comment-icon" horiz-adv-x="1170" d="M621.714 900.571c-304.286 0-548.571-201.429-548.571-445.714 0-102.857 40.714-197.143 111.429-272.146-30-83.566-96.429-156.423-98.572-156.423-15-15.002-17.143-36.432-10.714-55.713 8.571-19.288 27.857-30.003 49.285-30.003 130.714 0 235.715 53.57 297.857 98.575 62.143-19.288 128.571-30.003 199.286-30.003 302.146 0 548.571 199.285 548.571 445.714 0 244.285-246.426 445.714-548.571 445.714zM621.714 111.996c-57.857 0-115.714 8.572-169.285 25.717l-49.286 15.002-40.714-30.003c-30-21.424-72.858-44.997-124.286-62.142 17.142 25.717 32.143 55.713 42.857 85.716l23.571 59.999-45 47.143c-38.572 40.714-83.572 109.286-83.572 201.429 0 188.572 199.286 342.857 445.714 342.857 244.283 0 445.718-154.285 445.718-342.857 0-190.714-201.435-342.861-445.718-342.861z" />
<glyph unicode="&#xe904;" glyph-name="comments" horiz-adv-x="1463" d="M1289.143 148.568c61.718 61.718 100.571 139.432 100.571 226.289 0 182.857-175.996 333.714-404.568 358.857-70.861 132.571-240.004 226.286-436.575 226.286-262.857 0-475.429-164.571-475.429-365.714 0-84.571 36.571-162.286 100.571-226.286-36.571-68.571-86.857-123.429-86.857-125.714-13.714-13.714-18.286-36.571-11.429-57.147 9.143-18.286 27.429-31.993 50.286-31.993 121.143 0 219.429 47.996 285.714 89.139 20.571-4.571 43.429-6.857 64-11.429 73.143-130.286 240-221.714 438.857-221.714 45.714 0 91.429 4.571 134.861 13.714 66.282-41.143 164.571-86.857 287.993-86.857 20.575 0 38.861 11.425 48.004 32 6.853 18.286 4.571 41.143-11.432 57.147 0 0-50.278 54.857-84.568 123.421zM390.857 361.143l-38.857-25.143c-32-22.857-66.286-38.857-98.286-50.286 4.571 11.429 11.429 22.857 18.286 34.286l34.286 70.857-57.143 57.143c-29.714 29.714-66.286 80-66.286 146.286 0 137.143 166.857 256 365.714 256 196.571 0 365.714-118.857 365.714-256 0-139.429-169.143-256-365.714-256-38.857 0-75.429 2.286-112 11.429l-45.714 11.429zM1211.429 228.571l-57.147-57.139 36.571-70.861c4.579-11.425 11.432-22.857 18.286-34.289-34.282 11.432-66.282 29.718-98.282 50.293l-41.143 25.139-43.432-11.432c-36.571-9.143-75.425-11.425-111.996-11.425-123.429 0-235.429 45.714-301.714 112 233.143 25.143 411.429 178.286 411.429 363.429 0 6.857-2.282 13.714-2.282 22.857 146.286-34.286 258.282-130.286 258.282-242.286 0-66.286-38.853-116.571-68.571-146.286z" />
<glyph unicode="&#xe905;" glyph-name="consultancy" d="M1024 235.429v614.857c0 59.429-50.286 109.714-109.714 109.714h-804.571c-61.714 0-109.714-50.286-109.714-109.714v-804.571c0-61.718 48-109.714 109.714-109.714h612.571c29.711 0 57.139 11.425 77.714 32l189.711 189.711c20.575 20.575 34.289 48.004 34.289 77.718zM731.429 52.575v175.996h173.714l-173.714-175.996zM914.286 850.286v-512h-237.714c-32 0-54.857-25.143-54.857-54.857v-237.714h-512v804.571h804.571z" />
<glyph unicode="&#xe906;" glyph-name="cup-icon" horiz-adv-x="801" d="M448-64h-271.999c-2.904 0-5.752 0.791-8.24 2.288-165.856 99.503-167.76 370.239-167.76 381.712v351.999c0 4.245 1.686 8.315 4.686 11.314 3.001 3.001 7.070 4.686 11.314 4.686h592c4.243 0 8.313-1.685 11.314-4.686 2.999-2.999 4.686-7.069 4.686-11.314v-351.999c0-11.473-1.905-282.209-167.761-381.712-2.487-1.497-5.336-2.288-8.24-2.288zM180.513-31.999h262.976c146.575 92.207 148.512 349.391 148.512 351.999v336h-560v-336c0-2.608 1.936-259.793 148.512-351.999zM288.001 0h-92.624c-3.463 0-6.831 1.123-9.601 3.2-119.6 89.6-121.776 314.591-121.776 316.8v112c0 4.243 1.686 8.313 4.686 11.314s7.070 4.686 11.314 4.686c4.243 0 8.313-1.685 11.314-4.686s4.686-7.071 4.686-11.314v-111.888c0.208-57.519 19.552-219.616 104.849-288.113h87.152c4.243 0 8.313-1.685 11.314-4.686 2.999-2.999 4.686-7.069 4.686-11.312s-1.687-8.313-4.686-11.314c-3.001-3.001-7.071-4.686-11.314-4.686zM576 112c-3.498-0.002-6.902 1.143-9.687 3.258-2.787 2.117-4.803 5.088-5.74 8.458-0.936 3.372-0.741 6.956 0.553 10.206 1.296 3.251 3.619 5.986 6.619 7.79 0.801 0.495 80 48.16 142.639 95.087 16.317 11.294 29.942 26.049 39.901 43.213 9.961 17.164 16.010 36.313 17.715 56.084v143.906c0 55.328-24.671 79.999-79.999 79.999-51.826 0-65.329-22.576-65.89-23.535-2.072-3.642-5.472-6.339-9.488-7.533-4.018-1.192-8.339-0.788-12.063 1.132-3.675 1.912-6.453 5.187-7.74 9.125-1.287 3.936-0.977 8.22 0.858 11.932 2.096 4.208 22.513 40.88 94.322 40.88 73.263 0 112-38.72 112-112v-144c-1.717-24.729-8.926-48.763-21.106-70.353-12.178-21.588-29.018-40.189-49.295-54.449-64-48-144.576-96.431-145.36-96.911-2.486-1.501-5.336-2.292-8.24-2.288zM240.001 704c-2.971 0-5.885 0.827-8.412 2.389-2.528 1.564-4.571 3.798-5.9 6.457-1.329 2.657-1.892 5.632-1.624 8.592 0.266 2.958 1.352 5.785 3.135 8.162 8.777 14.254 13.329 30.707 13.128 47.445s-5.148 33.076-14.265 47.116c-12.236 19.415-18.633 41.938-18.432 64.887s6.993 45.356 19.57 64.553c2.545 3.395 6.336 5.639 10.536 6.239 2.080 0.297 4.198 0.182 6.233-0.34 2.037-0.521 3.949-1.439 5.63-2.699s3.096-2.84 4.167-4.648c1.071-1.808 1.774-3.809 2.072-5.889s0.182-4.198-0.341-6.234c-0.521-2.035-1.437-3.948-2.698-5.629-8.801-14.258-13.373-30.721-13.184-47.475s5.133-33.11 14.254-47.165c12.23-19.401 18.629-41.905 18.439-64.837s-6.961-45.328-19.51-64.522c-1.491-1.988-3.424-3.601-5.645-4.712s-4.671-1.689-7.155-1.689zM352.001 736.001c-3.197 0.002-6.319 0.961-8.965 2.755s-4.694 4.338-5.88 7.306-1.458 6.224-0.776 9.346c0.681 3.122 2.283 5.971 4.597 8.175 4.064 4.064 23.712 26.448-1.601 58.512-12.861 13.863-19.877 32.156-19.579 51.065 0.3 18.909 7.887 36.972 21.18 50.423 3.059 2.947 7.164 4.558 11.411 4.479s8.289-1.843 11.236-4.903c2.947-3.060 4.558-7.164 4.48-11.412-0.080-4.247-1.843-8.289-4.904-11.236-4.208-4.176-23.807-26.56 1.424-58.608 12.863-13.863 19.877-32.156 19.579-51.065s-7.885-36.972-21.178-50.423c-2.964-2.843-6.917-4.427-11.024-4.414z" />
<glyph unicode="&#xe907;" glyph-name="email" d="M512 929.778c-276 0-496-222-496-496 0-276.002 220-496.003 496-496.003 96 0 189.998 28.001 270 80.003 24.001 16.003 29.998 47.997 10.001 70.002l-20.002 25.998c-14 18-42.001 21.999-61.998 10.001-60.001-38.002-128-58.004-198.002-58.004-204 0-368 164.005-368 368.003 0 202 164 368 368 368 199.999 0 368.003-116 368.003-320 0-78-44.004-160.003-118.005-168.001-33.997 0-33.997 26.004-25.998 60.001l46 242.001c6.002 30-16.003 58-46 58h-89.998c-14 0-26.004-12-28.001-24v-2c-28.001 36-80.001 44-120.001 44-148 0-274-124-274-301.998 0-132.005 72-212.002 192-212.002 52 0 114 29.998 148 75.998 19.999-67.999 82.002-67.999 142.003-67.999 217.998 0 302 144.003 302 296.001 0 272-220.001 448-496.003 448zM468 319.778c-44 0-72 32-72 82 0 90 62 146 116 146 46 0 71.999-32 71.999-82 0-89.998-67.999-146-115.999-146z" />
<glyph unicode="&#xe908;" glyph-name="finance-icon" horiz-adv-x="1055" d="M1016.522 312.773c-3.236 0-6.102 2.040-7.123 5.081-3.095 9.182-6.839 18.238-11.132 26.917-1.43 2.895-0.855 6.381 1.443 8.682 15.014 15.048 15.014 39.537 0 54.585l-36.983 37.070c-15.014 15.045-39.444 15.045-54.46 0-0.022-0.022-0.043-0.042-0.062-0.062-2.292-2.25-5.738-2.805-8.602-1.384-8.662 4.302-17.698 8.054-26.858 11.154-3.030 1.027-5.066 3.897-5.066 7.143 0 21.282-17.276 38.597-38.509 38.597h-52.302c-21.234 0-38.509-17.316-38.509-38.597 0-3.246-2.037-6.116-5.070-7.143-9.157-3.1-18.193-6.851-26.854-11.154-2.889-1.438-6.366-0.858-8.657 1.437-0.043 0.043-0.084 0.085-0.129 0.129-15.025 14.93-39.368 14.888-54.34-0.119l-36.982-37.069c-15.014-15.048-15.014-39.537 0.006-54.592 2.292-2.295 2.869-5.782 1.434-8.678-4.288-8.679-8.032-17.735-11.129-26.917-1.024-3.038-3.888-5.080-7.123-5.080-21.236 0-38.509-17.313-38.509-38.595v-52.423c0-21.284 17.276-38.597 38.509-38.597 3.236 0 6.101-2.040 7.123-5.081 3.095-9.182 6.839-18.238 11.129-26.916 1.432-2.895 0.858-6.383-1.44-8.684-15.014-15.048-15.014-39.537 0-54.584l36.983-37.069c14.974-15.008 39.311-15.045 54.333-0.127 0.045 0.047 0.090 0.092 0.135 0.135 2.292 2.295 5.769 2.869 8.657 1.44 8.659-4.302 17.692-8.055 26.855-11.157 3.032-1.027 5.069-3.896 5.069-7.14 0-21.284 17.276-38.597 38.509-38.597h52.302c21.234 0 38.509 17.316 38.509 38.597 0 3.244 2.036 6.116 5.066 7.14 9.162 3.101 18.199 6.855 26.858 11.157 2.858 1.423 6.308 0.866 8.597-1.382l0.067-0.065c15.012-15.047 39.441-15.048 54.461 0l36.982 37.069c15.014 15.047 15.014 39.536-0.006 54.59-2.292 2.296-2.869 5.782-1.435 8.678 4.288 8.679 8.034 17.735 11.131 26.919 1.024 3.038 3.888 5.078 7.123 5.078 21.234 0 38.509 17.315 38.509 38.597v52.423c0 21.281-17.276 38.594-38.509 38.594zM1024.074 221.753c0-4.174-3.389-7.571-7.554-7.571-16.528 0-31.178-10.521-36.453-26.177-2.652-7.871-5.862-15.633-9.539-23.069-7.336-14.836-4.409-32.676 7.289-44.401 2.946-2.951 2.946-7.754 0-10.705l-36.98-37.067c-2.928-2.935-7.675-2.954-10.626-0.057-0.020 0.022-0.043 0.043-0.062 0.064-11.691 11.717-29.488 14.651-44.29 7.301-7.422-3.686-15.166-6.903-23.018-9.564-15.622-5.286-26.118-19.97-26.118-36.535 0-4.174-3.387-7.571-7.553-7.571h-52.302c-4.166 0-7.554 3.398-7.554 7.571 0 16.566-10.498 31.251-26.117 36.535-7.852 2.659-15.597 5.877-23.020 9.564-5.437 2.7-11.273 4.011-17.065 4.011-9.928 0-19.718-3.856-27.102-11.193-0.045-0.043-0.087-0.084-0.13-0.127-2.945-2.954-7.737-2.954-10.682 0l-36.982 37.069c-2.946 2.951-2.946 7.754 0.006 10.712 11.691 11.717 14.617 29.558 7.284 44.392-3.677 7.44-6.889 15.202-9.54 23.071-5.275 15.658-19.923 26.179-36.451 26.179-4.167 0-7.554 3.398-7.554 7.571v52.423c0 4.174 3.387 7.57 7.554 7.57 16.528 0 31.176 10.521 36.451 26.177 2.652 7.872 5.863 15.633 9.54 23.073 7.332 14.836 4.406 32.675-7.291 44.398-2.946 2.951-2.946 7.756 0 10.707l36.98 37.066c2.949 2.953 7.739 2.948 10.684 0 0.040-0.039 0.079-0.078 0.119-0.118 11.692-11.622 29.424-14.516 44.179-7.187 7.422 3.686 15.166 6.903 23.015 9.56 15.624 5.288 26.12 19.97 26.12 36.538 0 4.174 3.389 7.571 7.554 7.571h52.302c4.166 0 7.553-3.398 7.553-7.571 0-16.567 10.498-31.249 26.118-36.538 7.849-2.656 15.596-5.874 23.018-9.56 14.803-7.353 32.599-4.416 44.288 7.298 0.023 0.022 0.043 0.043 0.064 0.065 2.951 2.895 7.7 2.875 10.625-0.056l36.982-37.069c2.946-2.951 2.946-7.756-0.006-10.713-11.692-11.719-14.618-29.559-7.284-44.392 3.679-7.44 6.889-15.2 9.54-23.069 5.275-15.659 19.925-26.18 36.453-26.18 4.166 0 7.554-3.396 7.554-7.57v-52.423zM803.016 365.416c-64.614 0-117.183-52.688-117.183-117.451s52.568-117.451 117.183-117.451c64.616 0 117.184 52.689 117.184 117.451s-52.568 117.451-117.184 117.451zM803.016 161.539c-47.546 0-86.225 38.771-86.225 86.424s38.681 86.424 86.225 86.424c47.545 0 86.229-38.771 86.229-86.424s-38.682-86.424-86.229-86.424zM586.893 36.596l-108.707-62.906c-3.027-1.752-6.2-3.145-9.458-4.209v469.565l405.723 234.781c0.711-3.361 1.094-6.813 1.094-10.314v-158.112c0-8.567 6.931-15.512 15.478-15.512 8.549 0 15.476 6.945 15.476 15.512v158.112c0 28.719-15.531 55.76-40.415 70.158l-372.419 215.511c-24.925 14.424-55.898 14.426-80.828 0l-372.422-215.511c-24.637-14.254-40.415-41.149-40.415-70.158v-431.022c0-28.85 15.485-55.735 40.415-70.16l372.422-215.51c24.927-14.424 55.898-14.429 80.828 0l108.707 62.905c7.401 4.284 9.941 13.773 5.665 21.194-4.271 7.418-13.742 9.962-21.142 5.677zM437.771-30.517c-3.257 1.061-6.431 2.454-9.458 4.206l-372.421 215.512c-15.38 8.901-24.935 25.488-24.935 43.289v431.022c0 3.502 0.383 6.954 1.094 10.314l405.72-234.781v-469.561zM47.528 700.695c2.547 2.296 5.337 4.355 8.364 6.107l372.421 215.509c15.385 8.899 34.495 8.899 49.873 0l372.421-215.511c3.027-1.752 5.82-3.811 8.367-6.107l-405.726-234.781-405.721 234.783z" />
<glyph unicode="&#xe909;" glyph-name="half-star" horiz-adv-x="1092" d="M1016.532 587.717l-272.534 39.2-123.197 248.267c-11.2 22.4-31.733 33.6-54.133 33.6-20.533 0-41.066-11.2-52.266-33.6l-123.2-248.267-272.534-39.2c-48.534-7.466-69.067-67.2-33.6-102.667l197.867-192.266-46.666-270.665c-7.467-39.199 24.267-69.065 59.733-69.065 9.333 0 18.667 1.864 28 5.598l242.667 128.799 244.533-128.799c9.332-3.734 18.664-5.598 28.003-5.598 35.465 0 65.331 29.867 59.733 69.065l-46.667 270.665 197.864 192.266c35.465 35.467 14.937 95.201-33.601 102.667zM788.801 358.117l-33.601-33.6 7.468-46.666 37.335-210.935-233.337 121.337 1.866 591.731 95.201-192.267 20.531-42.934 46.667-5.6 212.801-31.733-154.931-149.333z" />
<glyph unicode="&#xe90a;" glyph-name="icon-call" d="M392.322 489.267c20.175 8.801 30.828 30.539 28.512 51.235l-21.13 124.904c-3.82 23.187-22.839 40.584-47.037 41.25l-111.011 0.869c-22.954 1.419-42.61-13.865-48.022-35.836-68.172-272.386 99.397-546.714 371.031-613.64 21.969-5.414 44.635 4.891 54.043 25.877l50.802 98.708c10.653 21.739 4.083 46.661-14.675 60.816l-100.791 76.739c-17.252 11.664-41.452 12.331-58.616-1.447l-50.513-37.341c-52.797 47.964-91.181 111.445-109.127 180.483l56.534 27.382zM443.12 222.525l81.369 59.398c-0.752 1.246 1.246 0.752 1.246 0.752l100.791-76.737c1.996-0.493 0.752-1.246 1.504-2.491l-50.802-98.706c-1.246-0.752-1.246-0.752-2.489-1.506-246.423 61.775-396.941 310.717-336.412 556.386 0.492 1.998 0.492 1.998 2.489 1.504l111.011-0.869c0 0 1.996-0.492 1.504-2.489l21.13-124.904-1.246-0.752-91.153-43.217c25.356-120.65 70.252-192.091 161.057-266.368zM492.594 711.373l-2.953-11.983c-1.968-7.989 1.303-16.211 6.803-19.685 13.75-8.684 22.027-22.375 22.578-37.341 1.273-7.728 7.034-14.444 15.023-16.412l11.23-1.709c10.739-3.705 22.433 5.066 20.899 16.036-0.115 33.926-18.929 65.044-48.917 80.907-9.004 6.455-22.202 0.173-24.664-9.814zM541.139 813.815c-10.739 3.705-21.45-1.071-23.911-11.058l-2.951-11.984c-3.213-8.742 2.054-17.454 10.797-20.668 57.951-22.753 94.074-82.499 88.053-145.631-1.216-9.233 4.053-17.946 13.286-19.162l11.232-1.709c9.987-2.459 19.944 3.562 21.651 14.792 10.192 84.35-38.728 165.256-118.157 195.419zM563.284 903.694c-9.495 4.458-19.452-1.563-21.912-11.549l-3.707-10.739c-2.459-9.987 2.808-18.7 11.551-21.913 106.637-35.808 172.114-144.098 154.281-255.165-1.216-9.235 5.297-17.194 14.040-20.407l11.23-1.709c9.987-2.459 19.944 3.562 20.407 14.040 22.493 134.282-56.53 264.977-185.891 307.443z" />
<glyph unicode="&#xe90b;" glyph-name="icon-line" horiz-adv-x="1536" d="M1536 157.667l-84.48 112.078c-177.399-234.809-464.418-235.517-642.476-1.576-223.724 295.387-585.314 295.387-809.044-0.008l84.476-112.078c177.323 234.196 463.968 234.196 641.292 0l0.596 0.814c224.172-294.804 585.696-294.548 809.636 0.77zM1536 627.959l-84.48 112.078c-177.399-234.81-464.418-235.52-642.476-1.576-223.724 295.388-585.314 295.388-809.044-0.008l84.476-112.078c177.323 234.196 463.968 234.196 641.292 0l0.596 0.814c224.172-294.804 585.696-294.552 809.636 0.77z" />
<glyph unicode="&#xe90c;" glyph-name="icon-share" horiz-adv-x="878" d="M682.667 326.095c-49.523 0-93.335-19.046-127.62-51.429l-186.666 118.096c11.428 34.284 11.428 74.284 0 108.571l186.666 118.095c34.284-30.476 78.097-49.524 127.62-49.524 100.952 0 182.857 81.905 182.857 182.857s-81.905 182.857-182.857 182.857c-100.952 0-182.857-81.905-182.857-182.857 0-19.047 1.907-38.095 7.617-55.238l-186.664-118.095c-34.285 32.381-78.095 51.429-125.714 51.429-100.952 0-182.857-81.905-182.857-182.857s81.905-182.857 182.857-182.857c47.619 0 91.429 19.046 125.714 49.523l186.664-118.092c-5.71-17.145-7.617-36.191-7.617-53.336 0-100.952 81.905-182.857 182.857-182.857s182.857 81.905 182.857 182.857c0 100.952-81.905 182.857-182.857 182.857zM682.667 844.19c49.523 0 91.429-41.905 91.429-91.429 0-51.429-41.906-91.429-91.429-91.429-51.429 0-91.429 40-91.429 91.429 0 49.524 39.999 91.429 91.429 91.429zM195.048 356.571c-51.429 0-91.429 39.999-91.429 91.429 0 49.524 40 91.429 91.429 91.429 49.524 0 91.429-41.905 91.429-91.429 0-51.429-41.905-91.429-91.429-91.429zM682.667 51.81c-51.429 0-91.429 39.999-91.429 91.429 0 49.523 39.999 91.429 91.429 91.429 49.523 0 91.429-41.906 91.429-91.429 0-51.429-41.906-91.429-91.429-91.429z" />
<glyph unicode="&#xe90d;" glyph-name="icon-star" horiz-adv-x="1092" d="M483.467 875.183l-121.333-248.267-274.4-39.2c-48.534-7.466-67.2-67.2-31.734-102.667l196-192.266-46.667-270.665c-7.466-48.538 44.8-85.866 87.734-63.468l244.533 128.799 242.668-128.799c42.933-22.398 95.198 14.93 87.729 63.468l-46.667 270.665 196 192.266c35.471 35.467 16.8 95.201-31.73 102.667l-272.534 39.2-123.199 248.267c-20.533 42.933-83.999 44.8-106.4 0z" />
<glyph unicode="&#xe90e;" glyph-name="location1" horiz-adv-x="731" d="M327.619-20.573c17.143-26.663 57.143-26.663 74.286 0 278.095 400.004 329.524 441.905 329.524 590.477 0 201.905-163.811 365.714-365.714 365.714-203.81 0-365.714-163.81-365.714-365.714 0-148.573 49.524-190.474 327.619-590.477zM365.714 417.524c-85.714 0-152.381 66.667-152.381 152.381 0 83.81 66.667 152.381 152.381 152.381 83.81 0 152.381-68.571 152.381-152.381 0-85.714-68.571-152.381-152.381-152.381z" />
<glyph unicode="&#xe90f;" glyph-name="love-hand" horiz-adv-x="1174" d="M985.345 922.413c-100.507 56.156-261.834 61.542-418.848-85.424-183.923 172.683-377.288 142.439-481.503 38.537s-134.888-297.113 37.483-480.996c-10.271-14.661-16.111-31.966-16.823-49.854-0.713-17.885 3.732-35.6 12.804-51.033s22.389-27.93 38.365-36.007c15.976-8.075 33.936-11.389 51.742-9.546-1.815-14.191-0.35-28.61 4.282-42.146s12.306-25.83 22.434-35.935c10.128-10.105 22.44-17.753 35.987-22.356 13.547-4.601 27.968-6.034 42.156-4.186-1.543-14.746 0.452-29.649 5.817-43.47s13.946-26.164 25.036-36.007c11.087-9.845 24.359-16.903 38.72-20.595 14.358-3.691 29.391-3.909 43.852-0.632-0.162-17.468 4.583-34.631 13.702-49.534 9.116-14.903 22.233-26.946 37.861-34.759 15.625-7.81 33.133-11.077 50.523-9.423 17.393 1.653 33.969 8.157 47.846 18.772l192.097 188.663c12.261-1.209 24.636 0.14 36.35 3.961 11.711 3.821 22.503 10.028 31.694 18.235 9.189 8.204 16.576 18.225 21.694 29.431s7.855 23.352 8.040 35.67c14.501-3.159 29.564-2.625 43.805 1.556 14.241 4.178 27.203 11.871 37.696 22.366 9.296 9.006 16.411 20.015 20.807 32.189s5.957 25.188 4.561 38.055c13.295-1.611 26.784-0.19 39.454 4.156 12.668 4.346 24.189 11.504 33.695 20.937 9.508 9.436 16.756 20.9 21.199 33.535 4.446 12.635 5.969 26.112 4.461 39.422 12.755-1.104 25.598 0.592 37.628 4.975 12.028 4.381 22.955 11.341 32.011 20.39 16.581 16.799 25.877 39.451 25.877 63.053 0 23.604-9.296 46.257-25.877 63.053l-17.033 16.996c13.774 60.958 7.65 124.724-17.473 181.947s-67.921 104.888-122.118 136.004zM549.346-1.763c-10.235-6.629-22.451-9.503-34.566-8.135-12.116 1.371-23.382 6.901-31.876 15.647-8.494 8.749-13.692 20.173-14.706 32.323s2.22 24.276 9.146 34.311l133.817 133.912c1.896 1.898 3.402 4.151 4.428 6.629 1.026 2.48 1.556 5.137 1.556 7.82 0 2.685-0.529 5.34-1.556 7.82s-2.533 4.733-4.428 6.629c-1.898 1.898-4.151 3.404-6.631 4.431-2.478 1.026-5.135 1.556-7.82 1.556-2.682 0-5.34-0.529-7.817-1.556-2.48-1.026-4.733-2.533-6.631-4.431l-138.535-138.535c-4.85-4.97-10.627-8.934-17.008-11.669s-13.237-4.188-20.178-4.273c-14.019-0.172-27.533 5.232-37.566 15.023-10.035 9.793-15.77 23.167-15.939 37.186-0.172 14.019 5.23 27.531 15.023 37.566l136.057 137.248c3.641 3.886 5.625 9.036 5.525 14.361-0.097 5.322-2.268 10.397-6.049 14.146s-8.874 5.874-14.199 5.924c-5.325 0.052-10.457-1.976-14.311-5.649l-136.292-137.503c-9.885-9.913-23.302-15.492-37.301-15.512-13.996-0.020-27.431 5.52-37.344 15.405s-15.492 23.302-15.512 37.299c-0.020 13.999 5.522 27.433 15.405 37.346l138.537 138.535c3.654 3.871 5.654 9.014 5.577 14.336-0.075 5.322-2.225 10.405-5.992 14.169-3.764 3.761-8.849 5.909-14.171 5.982-5.322 0.075-10.462-1.931-14.331-5.587l-138.147-138.168c-10.029-9.76-23.526-15.14-37.52-14.95-13.995 0.187-27.342 5.927-37.104 15.957-9.762 10.028-15.141 23.525-14.953 37.521 0.188 13.994 5.928 27.341 15.958 37.104l117.074 117.073c3.656 3.866 5.662 9.009 5.587 14.331-0.072 5.322-2.22 10.407-5.982 14.171-3.764 3.766-8.846 5.914-14.169 5.992s-10.465-1.923-14.336-5.577l-99.511-99.513c-151.278 163.355-126.732 331.844-36.702 421.639 92.995 92.722 269.816 115.961 438.79-52.976l89.523-80.137c-43.045-28.096-105.367-26.303-139.104 7.415-9.91 11.707-26.457 26.146-40.975 12.507l-97.073-94.011c-3.681-3.814-5.739-8.909-5.737-14.209s2.063-10.395 5.747-14.206c3.686-3.811 8.706-6.042 14.004-6.221 5.297-0.182 10.46 1.701 14.396 5.252l82.732 80.137c54.752-52.254 154.849-48.78 211.823 8.175 1.951 1.976 3.479 4.326 4.496 6.908 1.019 2.58 1.504 5.342 1.426 8.116-0.075 2.774-0.712 5.504-1.871 8.026s-2.815 4.783-4.87 6.648l-90.809 81.366c140.488 130.127 281.737 126.205 369.092 77.366 42.938-24.007 77.697-60.328 99.795-104.279 22.101-43.95 30.523-93.514 24.186-142.297l-84.762 84.605c-16.741 16.64-39.389 25.979-62.993 25.979-23.607 0-46.252-9.339-62.996-25.979-13.959-14.383-22.863-32.915-25.365-52.801-16.072 5.759-33.455 6.816-50.104 3.045-16.651-3.771-31.881-12.213-43.905-24.336-12.021-12.123-20.335-27.423-23.969-44.104s-2.433-34.052 3.459-50.076c-13.732-1.603-26.909-6.359-38.5-13.894-11.594-7.535-21.287-17.648-28.327-29.546s-11.239-25.263-12.266-39.052c-1.024-13.787 1.149-27.626 6.351-40.436-12.133-1.708-23.789-5.882-34.249-12.261-10.462-6.379-19.508-14.831-26.584-24.833-7.078-10.003-12.033-21.349-14.563-33.337s-2.582-24.369-0.155-36.377c3.507-16.906 11.891-32.416 24.116-44.606 4.763-4.293 110.070-111.609 111.903-110.028l-177.169-173.875zM811.822 210.922c-9.089-8.951-21.332-13.966-34.087-13.966s-24.998 5.015-34.089 13.966l-100.155 100.155c-8.547 8.771-13.429 20.47-13.654 32.716-0.227 12.246 4.221 24.116 12.438 33.198s19.583 14.691 31.789 15.687c12.206 0.997 24.334-2.695 33.914-10.322l107.65-107.687c7.235-9.273 10.842-20.87 10.143-32.611-0.702-11.744-5.659-22.828-13.949-31.175v0.040zM919.355 296.775c-4.885-4.778-10.717-8.482-17.116-10.874-6.401-2.393-13.232-3.419-20.053-3.017-6.823 0.402-13.484 2.225-19.561 5.352-6.074 3.129-11.429 7.493-15.72 12.812-0.195 0.232-132.898 133.073-132.898 133.073-8.889 9.044-13.846 21.232-13.792 33.914 0.055 12.68 5.118 24.826 14.086 33.792s21.114 14.024 33.797 14.076c12.68 0.052 24.868-4.91 33.909-13.802-1.951 1.384 159.999-157.152 146.654-150.518 4.313-8.981 5.734-19.081 4.066-28.904-1.666-9.823-6.339-18.889-13.374-25.945v0.040zM1018.086 392.384c-7.323-7.218-16.749-11.923-26.921-13.434-10.17-1.511-20.557 0.247-29.664 5.025-1.541-5.502-169.562 167.941-173.658 170.516-4.486 4.476-8.042 9.793-10.472 15.645s-3.684 12.123-3.689 18.459c-0.012 12.798 5.063 25.073 14.101 34.129 9.041 9.056 21.309 14.151 34.107 14.161 6.336 0.007 12.61-1.236 18.467-3.656 5.854-2.42 11.177-5.969 15.662-10.445 0 0 167.142-168.313 168.018-169.582 6.166-9.271 8.941-20.388 7.857-31.469s-5.962-21.449-13.809-29.349zM1113.13 490.491c-7.827-7.727-18.047-12.565-28.984-13.722s-21.944 1.441-31.212 7.36c-0.994 0.604-150.438 149.874-150.438 149.874-6.818 9.85-9.718 21.886-8.14 33.762 1.581 11.873 7.53 22.733 16.689 30.455 9.156 7.722 20.862 11.756 32.833 11.311 11.971-0.442 23.347-5.332 31.906-13.714l137.366-137.151c8.941-9.094 13.951-21.339 13.946-34.092-0.002-12.755-5.020-24.996-13.966-34.084zM136.155 735.584c1.062 2.486 1.62 5.157 1.643 7.861s-0.492 5.383-1.514 7.886c-1.021 2.503-2.529 4.778-4.436 6.694s-4.175 3.434-6.673 4.467c-2.498 1.033-5.176 1.559-7.879 1.55s-5.377-0.556-7.868-1.607c-2.491-1.051-4.748-2.585-6.641-4.515s-3.384-4.216-4.388-6.726c-31.707-76.508-17.171-164.899 41.171-248.879 3.105-4.451 7.852-7.49 13.196-8.442 5.344-0.954 10.848 0.255 15.301 3.359 4.453 3.107 7.49 7.852 8.444 13.197s-0.256 10.849-3.36 15.3c-50.049 72.040-63.2 146.597-36.995 209.855zM156.369 787.72c11.294 0 20.449 9.155 20.449 20.449s-9.155 20.449-20.449 20.449c-11.293 0-20.449-9.155-20.449-20.449s9.155-20.449 20.449-20.449zM322.887 546.062c11.294 0 20.448 9.156 20.448 20.45 0 11.291-9.154 20.448-20.448 20.448s-20.45-9.156-20.45-20.448c0-11.294 9.156-20.45 20.45-20.45z" />
<glyph unicode="&#xe910;" glyph-name="menu" horiz-adv-x="1600" d="M0 0c0-35.392 35.84-64 80-64h1040c44.16 0 80 28.608 80 64s-35.84 64-80 64h-1040c-44.16 0-80-28.608-80-64zM1520 384h-1440c-44.16 0-80 28.608-80 64s35.84 64 80 64h1440c44.16 0 80-28.608 80-64s-35.84-64-80-64zM800 832h-720c-44.16 0-80 28.608-80 64s35.84 64 80 64h720c44.16 0 80-28.608 80-64s-35.84-64-80-64z" />
<glyph unicode="&#xe911;" glyph-name="right-arrow" horiz-adv-x="1216" d="M1190.605 517.655l-414.477 414.888c-36.57 36.609-97.523 36.609-134.093 0l-85.335-85.418c-16.255-16.271-28.443-40.674-28.443-65.080s8.127-48.809 28.443-65.080l113.777-113.889h-572.952c-52.825 0-97.524-44.744-97.524-97.622v-117.957c0-48.809 44.698-89.487 97.524-89.487h568.888l-109.715-109.824c-16.254-16.269-28.443-40.672-28.443-69.146 0-24.41 8.127-48.813 28.443-69.146l85.331-85.421c16.256-16.269 40.64-28.474 65.018-28.474 24.384 0 48.762 8.134 65.018 28.474l414.477 414.888c20.314 20.339 28.442 44.744 28.442 69.148 4.064 24.404-4.064 48.807-24.378 69.146zM1133.715 436.307l-414.477-414.886c-8.128-8.141-12.186-8.141-20.32 0l-85.332 85.414c-4.064 4.070-4.064 8.134-4.064 12.205 0 4.064 0 8.134 4.064 12.198l178.791 178.97c12.192 12.2 16.256 28.473 8.128 44.743s-20.32 24.406-36.57 24.406h-666.412c-8.127 0-16.254 4.067-16.254 8.135v117.957c0 8.135 8.127 16.271 16.254 16.271h674.54c16.256 0 32.512 8.135 36.57 24.406 4.064 16.271 4.064 32.541-8.128 44.744l-182.853 183.037c-4.064 4.068-4.064 8.136-4.064 8.136 0 4.067 0 4.067 4.064 8.135l85.336 85.416c4.064 4.068 12.186 8.136 20.314 0l414.477-414.883c4.064-4.068 4.064-8.136 4.064-12.201-4.064-4.070-4.064-8.138-8.128-12.203z" />
<glyph unicode="&#xe912;" glyph-name="search-icon" d="M967.621 42.286l-230.478 230.473c-5.715 3.813-11.43 7.621-17.145 7.621h-24.761c59.051 68.574 97.143 160.002 97.143 259.048 0 217.143-179.049 396.19-396.19 396.19-219.048 0-396.19-179.048-396.19-396.19 0-219.048 177.143-396.19 396.19-396.19 99.045 0 188.572 36.191 259.048 95.237v-24.761c0-5.715 1.907-11.43 5.715-17.14l230.473-230.478c9.528-9.523 24.766-9.523 32.383 0l43.813 43.808c9.523 7.621 9.523 22.86 0 32.383zM396.19 234.667c-169.524 0-304.762 135.236-304.762 304.762 0 167.619 135.238 304.762 304.762 304.762 167.619 0 304.762-137.143 304.762-304.762 0-169.526-137.143-304.762-304.762-304.762z" />
<glyph unicode="&#xe913;" glyph-name="tag1" horiz-adv-x="1144" d="M34 388.471c-33.529 31.764-33.529 86.471 0 120l372.353 372.353c15.883 15.882 37.059 26.47 60 26.47h86.47l-460.588-458.824 421.765-419.997c-33.529-33.533-88.235-33.533-120 0l-360 359.997zM259.882 388.471c-33.529 31.764-33.529 86.471 0 120l372.354 372.353c15.884 15.882 37.057 26.47 60 26.47h360.002c47.646 0 84.703-38.823 84.703-84.706v-361.765c0-22.941-8.824-44.118-24.709-60l-372.35-372.35c-17.649-17.649-38.822-24.709-60-24.709-22.944 0-44.116 7.060-60 24.709l-359.999 359.997zM318.118 448.47l361.764-360.003 372.357 372.356v361.765h-360.002l-374.118-374.118zM882.821 737.882c47.652 0 84.709-38.823 84.709-84.706 0-47.647-37.057-84.706-84.709-84.706-45.881 0-84.703 37.059-84.703 84.706 0 45.882 38.822 84.706 84.703 84.706z" />
<glyph unicode="&#xe914;" glyph-name="user-icon" d="M512 752c-106 0-192-86-192-192s86-192 192-192c106 0 192 86 192 192s-86 192-192 192zM512 464c-54 0-96 42-96 96 0 52 42 96 96 96 52 0 96-44 96-96 0-54-44-96-96-96zM512 944c-274 0-496-222-496-496 0-273.997 222-496 496-496 273.997 0 496 222.003 496 496 0 274-222.003 496-496 496zM512 48c-100 0-192 36-262 96 30 46.003 82 78.003 140 78.003 42-12.006 82-18.003 122-18.003 38 0 78 5.997 120 18.003 57.997-2.003 110.003-32 140-78.003-69.997-60-162-96-260-96zM836 216c-48 62.003-124 104-210 104-20 0-52-20-114-20-64 0-96 20-116 20-86 0-162-41.997-210-104-48 64-74 144-74 232 0 220 178 400 400 400 220 0 400-180 400-400 0-88-28-168-76-232z" />
<glyph unicode="&#xe915;" glyph-name="video-icon" horiz-adv-x="853" d="M853.333 448l-853.333-492.675v985.347l853.333-492.672z" />
<glyph unicode="&#xe916;" glyph-name="envelope" d="M896 810.667h-768c-58.816 0-106.667-47.851-106.667-106.667v-512c0-58.816 47.851-106.667 106.667-106.667h768c58.816 0 106.667 47.851 106.667 106.667v512c0 58.816-47.851 106.667-106.667 106.667zM643.371 448.043l314.517 271.467c1.259-4.992 2.112-10.112 2.112-15.488v-512c0-5.376-0.853-10.496-2.112-15.488l-314.517 271.531zM896 768c14.272 0 27.328-4.864 37.995-12.779l-380.288-328.213c-24.171-20.971-59.243-20.949-83.456 0l-380.245 328.213c10.645 7.936 23.723 12.779 37.995 12.779zM66.112 176.512c-1.259 4.992-2.112 10.112-2.112 15.488v512c0 5.376 0.853 10.496 2.112 15.488l314.517-271.467zM128 128c-14.272 0-27.328 4.864-37.995 12.779l323.264 279.061 29.077-25.109c19.861-17.216 44.757-25.813 69.653-25.813s49.771 8.597 69.611 25.792l29.12 25.131 323.264-279.083c-10.645-7.936-23.723-12.779-37.995-12.779h-768z" />
<glyph unicode="&#xe917;" glyph-name="pin" d="M512 960c-188.208 0-341.334-153.126-341.334-341.334 0-56.5 14.126-112.52 40.98-162.208l281.688-509.458c3.75-6.792 10.896-11 18.666-11s14.916 4.208 18.666 11l281.792 509.626c26.75 49.52 40.876 105.542 40.876 162.042 0 188.206-153.126 341.332-341.334 341.332zM775.020 477.104l-263.020-475.688-262.916 475.5c-23.396 43.292-35.75 92.312-35.75 141.75 0 164.688 133.98 298.666 298.666 298.666s298.666-133.98 298.666-298.666c0-49.436-12.354-98.458-35.646-141.562zM512 789.334c-94.104 0-170.666-76.562-170.666-170.666 0-94.106 76.562-170.668 170.666-170.668s170.666 76.562 170.666 170.666c0 94.104-76.562 170.668-170.666 170.668zM512 490.666c-70.584 0-128 57.416-128 128s57.416 128 128 128 128-57.416 128-128c0-70.582-57.416-128-128-128z" />
<glyph unicode="&#xe918;" glyph-name="facebook-app-symbol" d="M591.302-64v467.060h156.71l23.511 182.076h-180.221v116.229c0 52.699 14.574 88.612 90.229 88.612l96.335 0.040v162.855c-16.66 2.165-73.847 7.129-140.407 7.129-138.987 0-234.141-84.837-234.141-240.603v-134.261h-157.185v-182.076h157.185v-467.060h187.983z" />
<glyph unicode="&#xe919;" glyph-name="linked-in-logo-of-two-letters" d="M33.252-19.696h133.122c18.366 0 33.252 14.888 33.252 33.254v581.872c0 18.367-14.887 33.252-33.252 33.252h-133.122c-18.367 0-33.252-14.885-33.252-33.252v-581.872c0-18.364 14.885-33.254 33.252-33.254zM33.252 730.979h133.122c18.366 0 33.252 14.887 33.252 33.252v118.213c0 18.366-14.887 33.252-33.252 33.252h-133.122c-18.367 0-33.252-14.887-33.252-33.252v-118.213c0-18.366 14.885-33.252 33.252-33.252zM973.912 561.193c-18.706 24.623-46.29 44.873-82.762 60.745-36.472 15.861-76.73 23.797-120.777 23.797-89.416 0-165.183-34.125-227.298-102.387-12.36-13.582-21.346-10.613-21.346 7.755v44.328c0 18.367-14.888 33.252-33.254 33.252h-118.915c-18.367 0-33.252-14.885-33.252-33.252v-581.872c0-18.366 14.887-33.254 33.252-33.254h133.122c18.367 0 33.252 14.888 33.252 33.254v202.36c0 84.303 5.091 142.088 15.272 173.345 10.178 31.257 29.010 56.356 56.479 75.302 27.472 18.945 58.49 28.423 93.069 28.423 26.994 0 50.086-6.632 69.27-19.898 19.183-13.264 33.037-31.844 41.562-55.767 8.529-23.919 12.79-76.608 12.79-158.073v-245.69c0-18.366 14.885-33.254 33.25-33.254h133.122c18.366 0 33.25 14.888 33.25 33.254v329.524c0 58.251-3.672 103.011-11.006 134.268s-20.363 59.204-39.080 83.84z" />
<glyph unicode="&#xe91a;" glyph-name="twitter" d="M1024 765.504c-38.080-16.704-78.656-27.776-120.96-33.152 43.52 25.984 76.736 66.816 92.352 116.032-40.576-24.192-85.376-41.28-133.12-50.816-38.528 41.024-93.44 66.432-153.344 66.432-116.224 0-209.792-94.336-209.792-209.984 0-16.64 1.408-32.64 4.864-47.872-174.528 8.512-328.96 92.16-432.704 219.584-18.112-31.424-28.736-67.392-28.736-106.112 0-72.704 37.44-137.152 93.248-174.464-33.728 0.64-66.816 10.432-94.848 25.856 0-0.64 0-1.472 0-2.304 0-102.016 72.768-186.752 168.192-206.272-17.088-4.672-35.712-6.912-55.040-6.912-13.44 0-27.008 0.768-39.744 3.584 27.2-83.136 104.384-144.256 196.16-146.24-71.424-55.872-162.112-89.536-260.288-89.536-17.216 0-33.728 0.768-50.24 2.88 92.992-59.968 203.2-94.208 322.048-94.208 386.304 0 597.504 320 597.504 597.376 0 9.28-0.32 18.24-0.768 27.136 41.664 29.568 76.672 66.496 105.216 108.992z" />
<glyph unicode="&#xe91b;" glyph-name="pinterest" d="M245.891 403.562c1.281 3.195 14.102 52.461 15 55.797-20.016 30.117-42.25 128.742-25.195 208.797 18.398 117.461 142.875 175.203 260.398 175.203v0.219c147.141-0.094 257.281-81.961 257.398-222.953 0.094-110.359-66.391-256.234-179.914-256.234-0.031 0-0.055 0-0.086 0-40.516 0-91.813 18.375-105.266 36.422-15.523 20.797-19.336 46.461-11.133 73.883 20.102 64.164 45.734 141.023 48.727 192.273 2.773 48.367-31.547 79.836-76.055 79.836-33.492 0-76.992-19.453-98.672-74.117-17.906-45.414-17.523-92.961 1.172-145.344 7.289-20.477-32.313-153.969-45-197.438-31.523-107.984-74.68-244.609-65.453-320.695l8.906-73.211 44.734 58.625c61.906 81.039 125.914 290.664 142.969 341.672 50.422-65.297 155.422-67.172 167.664-67.172 150.367 0 320.875 149.313 316.039 357.125-4.242 182.242-137.617 333.75-377.266 333.75v-0.234c-227.953 0-361-121.672-393.57-275.406-29.828-142.547 36.508-251.039 114.602-280.797z" />
<glyph unicode="&#xe91c;" glyph-name="down-filled-triangular-arrow" d="M974.608 728.555h-925.217c-43.783 0-66.087-52.87-34.696-84.261l462.608-462.608c19-19 50.391-19 69.4 0l462.608 462.608c31.383 31.391 9.079 84.261-34.704 84.261z" />
<glyph unicode="&#xe91d;" glyph-name="heart" d="M512-7.031c-14.578 0-28.633 5.281-39.586 14.875-41.367 36.172-81.25 70.164-116.438 100.148l-0.18 0.156c-103.164 87.914-192.25 163.836-254.234 238.625-69.289 83.609-101.563 162.883-101.563 249.484 0 84.141 28.852 161.766 81.234 218.586 53.008 57.492 125.742 89.156 204.828 89.156 59.109 0 113.242-18.688 160.891-55.539 24.047-18.602 45.844-41.367 65.047-67.922 19.211 26.555 41 49.32 65.055 67.922 47.648 36.852 101.781 55.539 160.891 55.539 79.078 0 151.82-31.664 204.828-89.156 52.383-56.82 81.227-134.445 81.227-218.586 0-86.602-32.266-165.875-101.555-249.477-61.984-74.797-151.063-150.711-254.211-238.617-35.25-30.031-75.195-64.078-116.656-100.336-10.945-9.578-25.008-14.859-39.578-14.859zM286.063 844.016c-62.133 0-119.211-24.797-160.734-69.828-42.141-45.711-65.352-108.898-65.352-177.93 0-72.836 27.070-137.977 87.766-211.211 58.664-70.789 145.922-145.148 246.953-231.25l0.188-0.156c35.32-30.102 75.359-64.227 117.031-100.664 41.922 36.508 82.023 70.688 117.414 100.836 101.023 86.102 188.273 160.445 246.938 231.234 60.688 73.234 87.758 138.375 87.758 211.211 0 69.031-23.211 132.219-65.352 177.93-41.516 45.031-98.602 69.828-160.727 69.828-45.516 0-87.305-14.469-124.203-43-32.883-25.438-55.789-57.594-69.219-80.094-6.906-11.57-19.063-18.477-32.523-18.477s-25.617 6.906-32.523 18.477c-13.422 22.5-36.328 54.656-69.219 80.094-36.898 28.531-78.688 43-124.195 43z" />
<glyph unicode="&#xe91e;" glyph-name="shopping-cart" d="M326.652 163.515c-59.043 0-106.904-47.863-106.904-106.904 0-59.043 47.863-106.904 106.904-106.904 59.043 0 106.904 47.863 106.904 106.904 0.002 59.040-47.861 106.904-106.904 106.904zM326.652-2.782c-32.801 0-59.39 26.59-59.39 59.39s26.59 59.39 59.39 59.39c32.801 0 59.39-26.59 59.39-59.39 0.002-32.801-26.59-59.39-59.39-59.39zM778.028 163.515c-59.043 0-106.904-47.863-106.904-106.904 0-59.043 47.863-106.904 106.904-106.904s106.904 47.863 106.904 106.904c0 59.040-47.861 106.904-106.904 106.904zM778.028-2.782c-32.801 0-59.39 26.59-59.39 59.39s26.59 59.39 59.39 59.39 59.39-26.59 59.39-59.39c0.002-32.801-26.59-59.39-59.39-59.39zM1019.157 787.124c-4.947 5.404-11.716 8.787-19.005 9.504l-773.276 10.69-21.381 65.331c-15.062 43.673-55.96 73.157-102.154 73.646h-79.584c-13.121 0-23.757-10.636-23.757-23.757s10.636-23.757 23.757-23.757h79.584c25.83-0.571 48.575-17.156 57.017-41.575l150.854-454.939-11.877-27.319c-13.248-34.163-9.269-72.614 10.69-103.341 19.769-30.18 53.027-48.805 89.088-49.889h462.066c13.121 0 23.757 10.636 23.757 23.757s-10.636 23.757-23.757 23.757h-462.069c-20.364 0.509-39.11 11.222-49.889 28.508-10.659 17.075-12.848 38.11-5.939 57.017l9.504 21.381 500.076 52.265c54.93 6.050 100.115 46.001 112.845 99.778l57.017 238.753c2.569 6.875 1.205 14.608-3.567 20.189zM919.381 538.869c-7.712-34.618-37.103-60.152-72.457-62.955l-494.138-51.076-110.469 334.967 728.139-10.69-51.076-210.245z" />
<glyph unicode="&#xe91f;" glyph-name="search-interface-symbol" d="M1014.294-8.29l-264.38 260.155c69.233 75.219 111.771 174.698 111.771 284.164-0.033 234.168-192.91 423.971-430.854 423.971s-430.821-189.803-430.821-423.971 192.877-423.971 430.821-423.971c102.808 0 197.102 35.56 271.168 94.678l265.406-261.181c12.932-12.74 33.927-12.74 46.859 0 12.962 12.738 12.962 33.415 0.030 46.155zM430.831 177.289c-201.326 0-364.533 160.613-364.533 358.74s163.207 358.74 364.533 358.74c201.328 0 364.533-160.613 364.533-358.74s-163.205-358.74-364.533-358.74z" />
<glyph unicode="&#xe920;" glyph-name="right-arrow-1" d="M1017.232 464.407v0l-232.722 232.724c-8.36 9.762-23.052 10.9-32.813 2.538-9.762-8.36-10.9-23.052-2.538-32.813 0.78-0.91 1.628-1.76 2.538-2.538l192.927-193.161h-921.352c-12.852 0-23.272-10.42-23.272-23.274s10.42-23.272 23.272-23.272h921.352l-192.927-192.927c-9.762-8.36-10.9-23.052-2.538-32.813s23.052-10.9 32.813-2.538c0.91 0.78 1.76 1.628 2.538 2.538l232.724 232.724c9.022 9.074 9.022 23.734-0.002 32.811z" />
<glyph unicode="&#xe921;" glyph-name="up-and-down-arrows" d="M176.896 651.435l119.168 119.168c11.583 11.59 27.589 18.76 45.269 18.76s33.686-7.169 45.269-18.759l119.168-119.168c3.856-3.862 6.241-9.194 6.241-15.083 0-11.789-9.557-21.345-21.345-21.345-5.9 0-11.24 2.393-15.104 6.262v0l-112.896 112.896v-606.165c0-11.782-9.551-21.333-21.333-21.333s-21.333 9.551-21.333 21.333v0 606.165l-112.896-112.896c-3.864-3.869-9.204-6.263-15.104-6.263-11.789 0-21.345 9.557-21.345 21.345 0 5.889 2.385 11.221 6.241 15.083v0zM859.563 232.064l-112.896-112.896v606.165c0 11.782-9.551 21.333-21.333 21.333s-21.333-9.551-21.333-21.333v0-606.165l-112.896 112.896c-3.864 3.869-9.204 6.263-15.104 6.263-11.789 0-21.345-9.557-21.345-21.345 0-5.889 2.385-11.221 6.241-15.083v0l119.168-119.168c11.583-11.59 27.589-18.76 45.269-18.76s33.686 7.169 45.269 18.759l119.168 119.168c3.856 3.862 6.241 9.194 6.241 15.083 0 11.789-9.557 21.345-21.345 21.345-5.9 0-11.24-2.393-15.104-6.262v0z" />
<glyph unicode="&#xe922;" glyph-name="view" d="M1017.492 467.917c-9.148 12.514-227.114 306.413-505.497 306.413s-496.359-293.899-505.497-306.401c-8.664-11.872-8.664-27.974 0-39.846 9.138-12.514 227.114-306.413 505.497-306.413s496.349 293.901 505.497 306.403c8.676 11.87 8.676 27.984 0 39.844zM511.995 189.186c-205.058 0-382.661 195.066-435.235 258.837 52.506 63.826 229.736 258.791 435.235 258.791 205.048 0 382.639-195.032 435.235-258.837-52.506-63.824-229.736-258.791-435.235-258.791zM511.995 650.549c-111.684 0-202.55-90.866-202.55-202.55s90.866-202.55 202.55-202.55 202.55 90.866 202.55 202.55-90.866 202.55-202.55 202.55zM511.995 312.967c-74.46 0-135.032 60.574-135.032 135.032s60.574 135.032 135.032 135.032 135.032-60.574 135.032-135.032-60.572-135.032-135.032-135.032z" />
<glyph unicode="&#xe923;" glyph-name="star" d="M1024 564.362l-371.866 24.456-140.134 352.040-140.134-352.042-371.866-24.456 285.316-241.86-93.604-367.358 320.288 202.43 320.288-202.43-93.6 367.342 285.312 241.878zM512 228.552l-224.928-142.16 65.654 257.662-201.068 170.17 261.942 17.206 98.4 247.196 98.4-247.198 262.248-17.204-201.378-170.154 65.658-257.678-224.928 142.16z" />
<glyph unicode="&#xe924;" glyph-name="pointed-star" d="M655.897 566.746c-11.313 0-23.323 8.732-26.828 19.49l-110.737 340.796c-3.505 10.761-9.16 10.761-12.665 0l-110.717-340.796c-3.505-10.761-15.514-19.49-26.828-19.49h-358.34c-11.313 0-13.076-5.391-3.916-12.052l289.887-210.589c9.16-6.662 13.752-20.781 10.247-31.543l-110.714-340.776c-3.505-10.761 1.087-14.1 10.247-7.441l289.887 210.589c9.16 6.662 24.001 6.662 33.161 0l289.887-210.609c9.16-6.662 13.752-3.321 10.247 7.441l-110.717 340.776c-3.505 10.761 1.087 24.881 10.247 31.543l289.887 210.589c9.16 6.662 7.398 12.052-3.916 12.052l-358.32 0.020z" />
<glyph unicode="&#xe925;" glyph-name="customer-testimonial" d="M1024 562.888l-353.808 51.361-158.192 320.614-158.192-320.534-353.808-51.361 255.96-249.434-60.546-352.398 316.586 166.33 316.465-166.33-60.586 352.398 256.121 249.353zM548.658 197.116l-36.658 19.336v540.279l87.495-177.206 18.289-37.181 41.129-5.922 195.575-28.48-171.365-166.773 7.090-40.968 33.516-194.89-175.071 91.806z" />
<glyph unicode="&#xe926;" glyph-name="send" d="M1015.214 951.21c-8.486 8.488-21.218 11.098-32.354 6.642l-964-385.595c-11.030-4.412-18.416-14.916-18.84-26.79-0.422-11.872 6.202-22.874 16.89-28.058l380.135-184.362 184.364-380.135c5.028-10.368 15.528-16.91 26.986-16.91 0.356 0 0.714 0.006 1.072 0.020 11.87 0.422 22.378 7.808 26.788 18.838l385.599 963.994c4.456 11.144 1.846 23.87-6.64 32.356zM104.188 541.765l765.251 306.097-456.057-456.053-309.193 149.956zM605.765 40.188l-149.958 309.197 456.059 456.053-306.101-765.251z" />
<glyph unicode="&#xe927;" glyph-name="customer-support" d="M952.096 513.552c-3.92 111.696-49.152 216.144-128.576 295.568-83.248 83.264-193.888 129.104-311.52 129.104-237.584 0-431.712-189.104-440.080-424.672-36.256-16.112-61.632-52.4-61.632-94.576v-116.192c0-57.056 46.416-103.488 103.488-103.488 36.928 0 66.96 30.032 66.96 66.96v189.264c0 34.672-26.592 62.944-60.4 66.304 12.48 205.232 183.328 368.4 391.664 368.4 104.832 0 203.408-40.864 277.6-115.056 68.128-68.128 108-156.928 114-253.36-33.776-3.392-60.32-31.648-60.32-66.288v-189.248c0-34.96 27.008-63.408 61.216-66.368v-47.824c0-53.856-43.824-97.664-97.68-97.664h-72.336c-3.552 10.144-9.12 19.52-16.928 27.296-13.68 13.744-31.92 21.312-51.344 21.312h-74.56c-10.704 0-20.976-2.272-30.384-6.656-25.664-11.792-42.24-37.68-42.24-65.952 0-19.424 7.568-37.664 21.28-51.312 13.712-13.744 31.952-21.312 51.344-21.312h74.56c30.912 0 58.16 19.984 68.32 48.624h72.288c80.336 0 145.68 65.344 145.68 145.664v56.368c36.032 16.208 61.216 52.368 61.216 94.368v116.192c0 42.144-25.376 78.432-61.616 94.544zM132.72 455.52v-189.248c0-10.448-8.496-18.96-18.96-18.96-30.592 0-55.488 24.896-55.488 55.488v116.192c0 30.608 24.896 55.488 55.488 55.488 10.464 0 18.96-8.512 18.96-18.96zM690.288 25.264c-2.384-11.296-12.528-19.504-24.096-19.504h-74.56c-6.56 0-12.72 2.56-17.424 7.264-4.64 4.624-7.2 10.8-7.2 17.36 0 9.584 5.616 18.336 14.416 22.384 3.136 1.472 6.576 2.224 10.208 2.224h74.56c6.56 0 12.72-2.544 17.408-7.248 4.64-4.624 7.2-10.8 7.2-17.36 0.016-1.76-0.176-3.52-0.512-5.12zM965.712 302.8c0-30.592-24.896-55.488-55.488-55.488-10.448 0-18.96 8.496-18.96 18.96v189.248c0 10.448 8.496 18.96 18.96 18.96 30.592 0 55.488-24.896 55.488-55.488zM667.408 294.528c56.080 0 101.696 45.632 101.696 101.696v207.216c0 27.104-10.592 52.64-29.824 71.872s-44.752 29.824-71.872 29.824h-310.816c-56.080 0-101.696-45.616-101.696-101.696v-207.216c0-56.080 45.616-101.696 101.696-101.696h1.904v-53.696c0-20.48 12.208-38.656 31.088-46.32 6.096-2.448 12.432-3.664 18.704-3.664 13.072 0 25.808 5.184 35.136 14.832l89.328 88.848zM505.952 335.552l-96.672-96.144c-0.432-0.448-0.752-0.784-1.664-0.384-1.104 0.448-1.104 1.168-1.104 1.808v77.696c0 13.248-10.736 24-24 24h-25.904c-29.616 0-53.696 24.096-53.696 53.696v207.216c0 29.616 24.080 53.696 53.696 53.696h310.816c14.304 0 27.76-5.6 37.936-15.76 10.176-10.176 15.76-23.648 15.76-37.936v-207.216c0-29.616-24.096-53.696-53.696-53.696h-144.544c-6.352 0-12.432-2.512-16.928-6.976zM395.408 531.408c-19.52 0-35.408-15.904-35.408-35.408s15.904-35.408 35.408-35.408c19.536 0 35.44 15.904 35.44 35.408s-15.888 35.408-35.44 35.408zM511.984 531.408c-19.52 0-35.408-15.904-35.408-35.408s15.904-35.408 35.408-35.408c19.552 0 35.44 15.904 35.44 35.408s-15.888 35.408-35.44 35.408zM628.56 531.408c-19.52 0-35.408-15.904-35.408-35.408s15.904-35.408 35.408-35.408c19.536 0 35.44 15.904 35.44 35.408s-15.904 35.408-35.44 35.408z" />
<glyph unicode="&#xe928;" glyph-name="secure-payment" d="M657.306 245.965h-587.674c-0.032 0-0.069 0-0.106 0-26.873 0-48.699 21.611-49.045 48.403v490.631c0 27.146 22.006 49.152 49.152 49.152h750.080c27.146 0 49.152-22.006 49.152-49.152v0-286.72c0-5.655-4.585-10.24-10.24-10.24s-10.24 4.585-10.24 10.24v0 286.72c-0.058 15.812-12.86 28.614-28.666 28.672h-750.086c-15.812-0.058-28.614-12.86-28.672-28.666v-490.604c0.116-15.747 12.908-28.467 28.671-28.467 0 0 0.001 0 0.001 0h587.674c5.655 0 10.24-4.585 10.24-10.24s-4.585-10.24-10.24-10.24v0zM858.522 631.808h-826.266c-5.655 0-10.24 4.585-10.24 10.24v0 85.504c0 5.655 4.585 10.24 10.24 10.24v0h826.266c5.655 0 10.24-4.585 10.24-10.24v0-85.504c0-5.655-4.585-10.24-10.24-10.24v0zM42.496 652.288h805.786v65.024h-805.786zM813.67 61.85c-2.317 0-4.454 0.769-6.17 2.067l0.026-0.019c-110.285 81.92-184.32 169.37-184.32 329.318v75.264c0.010 2.951 1.266 5.607 3.27 7.469l0.006 0.006c1.934 1.747 4.509 2.816 7.334 2.816 0.374 0 0.744-0.019 1.109-0.055l-0.046 0.004c6.449-0.67 13.934-1.052 21.508-1.052 58.261 0 111.241 22.609 150.645 59.533l-0.121-0.112c1.815 1.665 4.244 2.685 6.912 2.685s5.097-1.020 6.92-2.692l-0.008 0.007c41.779-37.888 98.406-56.73 172.544-58.368 5.655 0 10.24-4.585 10.24-10.24v0-75.571c0-159.949-73.421-247.296-184.32-329.318-1.554-1.057-3.463-1.702-5.52-1.741h-0.010zM644.198 458.24v-64.819c0-148.378 67.482-231.322 169.472-308.326 101.888 76.8 169.37 159.744 169.37 308.122v65.638c-70.758 2.765-126.362 21.606-169.37 57.344-41.497-36.242-96.156-58.342-155.976-58.342-4.748 0-9.463 0.139-14.142 0.414l0.646-0.030zM873.677 222.72h-120.115c0 0 0 0 0 0-10.935 0-19.807 8.836-19.865 19.758v87.353c0.058 10.927 8.93 19.763 19.865 19.763 0 0 0 0 0 0h120.115c0 0 0 0 0 0 10.935 0 19.807-8.836 19.865-19.758v-87.148c0-0.030 0-0.066 0-0.102 0-10.971-8.894-19.866-19.866-19.866 0 0 0 0 0 0v0zM754.176 329.114v-86.426l119.501 0.512-0.614 86.426zM860.16 329.114h-93.082c-5.655 0-10.24 4.585-10.24 10.24v0 33.69c-0.033 0.72-0.051 1.564-0.051 2.412 0 31.387 25.445 56.832 56.832 56.832s56.832-25.445 56.832-56.832c0-0.848-0.019-1.692-0.055-2.531l0.004 0.119v-33.69c0-5.655-4.585-10.24-10.24-10.24v0zM777.318 349.594h72.602v23.45c0.033 0.576 0.051 1.25 0.051 1.929 0 20.077-16.275 36.352-36.352 36.352s-36.352-16.275-36.352-36.352c0-0.678 0.019-1.353 0.055-2.022l-0.004 0.093zM813.67 270.541c-5.655 0-10.24 4.585-10.24 10.24v0 10.957c0 5.655 4.585 10.24 10.24 10.24s10.24-4.585 10.24-10.24v0-10.957c0-5.655-4.585-10.24-10.24-10.24v0zM337.101 355.123h-196.506c-12.612 0-22.835 10.224-22.835 22.835v0 93.286c0 12.612 10.224 22.835 22.835 22.835v0h196.506c12.567-0.058 22.733-10.259 22.733-22.835 0 0 0 0 0 0v0-93.286c0 0 0 0 0 0 0-12.576-10.165-22.777-22.727-22.835h-0.006zM140.595 473.6c-1.301 0-2.355-1.054-2.355-2.355v0-93.286c0-1.301 1.054-2.355 2.355-2.355v0h196.506c0.001 0 0.002 0 0.002 0 1.244 0 2.253 1.009 2.253 2.253 0 0.036-0.001 0.072-0.003 0.107v-0.005 93.286c0.001 0.031 0.002 0.066 0.002 0.102 0 1.244-1.009 2.253-2.253 2.253-0.001 0-0.002 0-0.002 0v0z" />
<glyph unicode="&#xe929;" glyph-name="quotation" d="M0 394h268v-78.18c0-44.664-36.336-81-81-81h-103v-200h103c154.945 0 281 126.055 281 281v546.18h-468zM556 862v-468h268v-78.18c0-44.664-36.336-81-81-81h-103v-200h103c154.945 0 281 126.055 281 281v546.18z" />
<glyph unicode="&#xe92a;" glyph-name="phone-call" d="M809.283 325.668c-20.964 21.828-46.25 33.499-73.049 33.499-26.583 0-52.085-11.454-73.914-33.283l-68.295-68.078c-5.619 3.026-11.238 5.835-16.641 8.645-7.78 3.89-15.129 7.564-21.396 11.454-63.972 40.631-122.109 93.581-177.869 162.092-27.015 34.147-45.17 62.892-58.353 92.068 17.722 16.209 34.147 33.067 50.14 49.276 6.051 6.051 12.103 12.319 18.154 18.37 45.386 45.386 45.386 104.171 0 149.557l-59.001 59.001c-6.7 6.7-13.616 13.616-20.099 20.532-12.967 13.4-26.583 27.231-40.631 40.199-20.964 20.748-46.034 31.77-72.401 31.77s-51.869-11.022-73.482-31.77c-0.216-0.216-0.216-0.216-0.432-0.432l-73.482-74.13c-27.664-27.664-43.441-61.379-46.899-100.497-5.187-63.108 13.4-121.893 27.664-160.363 35.012-94.445 87.313-181.975 165.333-275.772 94.662-113.032 208.558-202.29 338.664-265.182 49.708-23.557 116.058-51.437 190.188-56.192 4.539-0.216 9.293-0.432 13.616-0.432 49.924 0 91.852 17.938 124.703 53.598 0.216 0.432 0.648 0.648 0.864 1.081 11.238 13.616 24.206 25.935 37.821 39.118 9.293 8.861 18.803 18.154 28.096 27.88 21.396 22.261 32.634 48.195 32.634 74.778 0 26.799-11.454 52.518-33.283 74.13l-118.651 119.083zM886.654 98.092c-0.216 0-0.216-0.216 0 0-8.429-9.077-17.074-17.29-26.367-26.367-14.048-13.4-28.312-27.448-41.712-43.224-21.828-23.341-47.547-34.363-81.262-34.363-3.242 0-6.7 0-9.942 0.216-64.188 4.106-123.838 29.176-168.575 50.573-122.325 59.217-229.738 143.289-318.996 249.837-73.698 88.826-122.974 170.953-155.608 259.131-20.099 53.814-27.448 95.742-24.206 135.293 2.161 25.286 11.887 46.25 29.825 64.188l73.698 73.698c10.59 9.942 21.828 15.345 32.851 15.345 13.616 0 24.638-8.213 31.554-15.129 0.216-0.216 0.432-0.432 0.648-0.648 13.183-12.319 25.719-25.070 38.902-38.686 6.7-6.916 13.616-13.832 20.532-20.964l59.001-59.001c22.909-22.909 22.909-44.089 0-66.998-6.268-6.268-12.319-12.535-18.587-18.587-18.154-18.587-35.444-35.876-54.247-52.734-0.432-0.432-0.864-0.648-1.081-1.081-18.587-18.587-15.129-36.741-11.238-49.060 0.216-0.648 0.432-1.297 0.648-1.945 15.345-37.173 36.957-72.185 69.807-113.896l0.216-0.216c59.65-73.482 122.541-130.754 191.917-174.627 8.861-5.619 17.938-10.158 26.583-14.48 7.78-3.89 15.129-7.564 21.396-11.454 0.864-0.432 1.729-1.081 2.593-1.513 7.348-3.674 14.264-5.403 21.396-5.403 17.938 0 29.176 11.238 32.851 14.912l73.914 73.914c7.348 7.348 19.019 16.209 32.634 16.209 13.4 0 24.422-8.429 31.122-15.777 0.216-0.216 0.216-0.216 0.432-0.432l119.083-119.083c22.261-22.044 22.261-44.737 0.216-67.646zM553.394 716.417c56.624-9.509 108.061-36.309 149.124-77.372s67.646-92.5 77.372-149.124c2.377-14.264 14.696-24.206 28.744-24.206 1.729 0 3.242 0.216 4.971 0.432 15.993 2.593 26.583 17.722 23.99 33.715-11.671 68.511-44.089 130.97-93.581 180.462s-111.951 81.91-180.462 93.581c-15.993 2.593-30.905-7.997-33.715-23.773s7.564-31.122 23.557-33.715zM1022.811 508.292c-19.235 112.816-72.401 215.474-154.095 297.168s-184.352 134.86-297.168 154.095c-15.777 2.81-30.689-7.997-33.499-23.773-2.593-15.993 7.997-30.905 23.99-33.715 100.713-17.074 192.565-64.837 265.614-137.67 73.049-73.049 120.596-164.901 137.67-265.614 2.377-14.264 14.696-24.206 28.744-24.206 1.729 0 3.242 0.216 4.971 0.432 15.777 2.377 26.583 17.506 23.773 33.283z" />
<glyph unicode="&#xe92b;" glyph-name="user" d="M504.702 466.735c67.765 0 126.437 24.305 174.39 72.258 47.937 47.945 72.25 106.609 72.25 174.382 0 67.75-24.305 126.422-72.258 174.382-47.953 47.937-106.625 72.242-174.382 72.242-67.773 0-126.437-24.305-174.382-72.25s-72.258-106.617-72.258-174.375c0-67.773 24.312-126.445 72.258-174.39 47.961-47.937 106.633-72.25 174.382-72.25zM372.757 845.321c36.789 36.789 79.945 54.672 131.945 54.672 51.992 0 95.156-17.883 131.953-54.672 36.789-36.797 54.68-79.961 54.68-131.945 0-52-17.891-95.156-54.68-131.953-36.797-36.797-79.961-54.68-131.953-54.68-51.984 0-95.14 17.891-131.945 54.68-36.797 36.789-54.687 79.953-54.687 131.953 0 51.984 17.891 95.148 54.687 131.945zM936.256 172.595c-1.383 19.953-4.18 41.719-8.297 64.703-4.156 23.156-9.508 45.047-15.914 65.055-6.625 20.68-15.617 41.101-26.75 60.672-11.539 20.312-25.102 38-40.32 52.555-15.914 15.227-35.398 27.469-57.93 36.398-22.453 8.883-47.336 13.383-73.953 13.383-10.453 0-20.562-4.289-40.086-17-12.016-7.836-26.070-16.898-41.758-26.922-13.414-8.547-31.586-16.555-54.031-23.805-21.898-7.086-44.133-10.68-66.086-10.68-21.937 0-44.172 3.594-66.086 10.68-22.422 7.242-40.601 15.25-53.992 23.797-15.539 9.93-29.602 18.992-41.797 26.937-19.508 12.711-29.617 17-40.070 17-26.625 0-51.5-4.508-73.945-13.398-22.516-8.914-42.008-21.156-57.937-36.398-15.219-14.562-28.781-32.242-40.312-52.547-11.117-19.57-20.117-39.984-26.742-60.68-6.398-20.008-11.75-41.891-15.906-65.047-4.125-22.953-6.914-44.726-8.297-64.726-1.359-19.555-2.047-39.906-2.047-60.469 0-53.453 16.992-96.726 50.5-128.64 33.094-31.492 76.875-47.461 130.133-47.461h493.062c53.242 0 97.023 15.969 130.125 47.461 33.516 31.891 50.508 75.18 50.508 128.648-0.008 20.633-0.703 40.984-2.070 60.484zM846.444 26.939c-21.867-20.812-50.898-30.93-88.758-30.93h-493.054c-37.867 0-66.898 10.117-88.758 30.922-21.445 20.414-31.867 48.281-31.867 85.172 0 19.187 0.633 38.133 1.898 56.32 1.234 17.844 3.758 37.445 7.5 58.273 3.695 20.57 8.398 39.875 13.992 57.351 5.367 16.758 12.687 33.351 21.766 49.336 8.664 15.234 18.633 28.305 29.633 38.836 10.289 9.852 23.258 17.914 38.539 23.961 14.133 5.594 30.016 8.656 47.258 9.117 2.102-1.117 5.844-3.25 11.906-7.203 12.336-8.039 26.555-17.211 42.273-27.25 17.719-11.297 40.547-21.5 67.82-30.305 27.883-9.016 56.32-13.594 84.547-13.594s56.672 4.578 84.539 13.586c27.297 8.82 50.117 19.016 67.859 30.328 16.086 10.281 29.906 19.187 42.242 27.234 6.062 3.945 9.805 6.086 11.906 7.203 17.25-0.461 33.133-3.523 47.273-9.117 15.273-6.047 28.242-14.117 38.531-23.961 11-10.523 20.969-23.594 29.633-38.844 9.086-15.977 16.414-32.578 21.773-49.32 5.602-17.5 10.312-36.797 14-57.351 3.734-20.867 6.266-40.476 7.5-58.289v-0.016c1.273-18.117 1.914-37.055 1.922-56.297-0.008-36.898-10.43-64.758-31.875-85.164z" />
<glyph unicode="&#xe92c;" glyph-name="text" d="M96 704c0 17.673 14.327 32 32 32h768c17.674 0 32-14.327 32-32s-14.326-32-32-32h-768c-17.673 0-32 14.326-32 32zM96 192c0 17.674 14.327 32 32 32h768c17.674 0 32-14.326 32-32s-14.326-32-32-32h-768c-17.673 0-32 14.326-32 32zM266.668 448c0 17.674 14.326 32 32 32h597.332c17.674 0 32-14.326 32-32s-14.326-32-32-32h-597.332c-17.674 0-32 14.326-32 32z" />
<glyph unicode="&#xe92d;" glyph-name="arrow-up" d="M892.928 224.768c-8.397 0-16.794 3.174-23.194 9.574l-357.734 357.786-357.734-357.734c-12.8-12.8-33.536-12.8-46.336 0s-12.8 33.536 0 46.336l380.928 380.928c12.8 12.8 33.536 12.8 46.336 0l380.928-380.928c12.8-12.8 12.8-33.536 0-46.336-6.4-6.451-14.797-9.626-23.194-9.626z" />
<glyph unicode="&#xe92e;" glyph-name="home" d="M512.001 690.953l-365.205-301.073c0-0.425-0.107-1.050-0.32-1.902-0.209-0.845-0.32-1.459-0.32-1.895v-304.868c0-11.008 4.024-20.547 12.071-28.58 8.044-8.038 17.57-12.082 28.58-12.082h243.888v243.902h162.615v-243.911h243.886c11.008 0 20.547 4.036 28.58 12.091 8.047 8.024 12.084 17.57 12.084 28.58v304.868c0 1.691-0.231 2.968-0.641 3.797l-365.219 301.073zM1016.937 458.479l-139.090 115.597v259.143c0 5.924-1.904 10.796-5.726 14.609-3.791 3.809-8.663 5.713-14.6 5.713h-121.946c-5.931 0-10.801-1.904-14.616-5.713-3.806-3.813-5.708-8.687-5.708-14.609v-123.853l-154.974 129.575c-13.535 11.010-29.628 16.514-48.262 16.514-18.631 0-34.722-5.504-48.27-16.514l-456.687-380.462c-4.234-3.381-6.554-7.933-6.985-13.65-0.429-5.713 1.050-10.703 4.443-14.934l39.379-47.002c3.393-3.809 7.833-6.138 13.339-6.99 5.083-0.427 10.167 1.059 15.25 4.445l439.52 366.493 439.524-366.491c3.395-2.954 7.833-4.429 13.339-4.429h1.909c5.497 0.836 9.929 3.181 13.339 6.981l39.383 46.996c3.386 4.24 4.87 9.221 4.429 14.941-0.434 5.702-2.763 10.253-6.988 13.642z" />
<glyph unicode="&#xe92f;" glyph-name="check" d="M879.514 718.986c17.916-15.677 19.541-42.987 3.605-60.674l-448.593-497.911c-16.019-17.779-43.523-18.91-60.946-2.509l-259.585 244.378c-16.189 15.241-17.738 40.636-3.849 57.997 15.326 19.157 43.866 21.794 62.106 5.389l201.403-181.158c17.503-15.744 44.45-14.336 60.219 3.145l385.856 427.815c15.612 17.312 42.24 18.882 59.785 3.529z" />
<glyph unicode="&#xe930;" glyph-name="open-mail" d="M1006 535.2c0 5.8-2.8 11.4-7.2 15l-474.6 387.4c-7.2 5.8-17.4 5.8-24.4 0l-474.6-387.4c-4.4-3.4-7.2-9.2-7.2-15v-562c0.2-10.6 9-19.2 19.4-19.2h949.2c10.6 0 19.4 8.8 19.4 19.4zM967.2 14.2l-319.6 261 319.6 223zM512 897.6l442.4-361.2-338-235.8-92.2 75.2c-7.2 5.8-17.4 5.8-24.4 0l-92.2-75.2-338 235.8zM56.8 498l319.6-223-319.6-260.8zM91.8-7.2l420.2 343 420.2-343z" />
<glyph unicode="&#xe931;" glyph-name="location-pin" d="M512-64c-5.035 0-10.069 1.792-14.123 5.333-15.104 13.355-369.877 329.856-369.877 634.667 0 211.755 172.288 384 384 384s384-172.245 384-384c0-304.811-354.773-621.312-369.877-634.667-4.053-3.541-9.088-5.333-14.123-5.333zM512 917.333c-188.203 0-341.333-153.131-341.333-341.333 0-252.501 275.243-527.275 341.333-589.611 66.091 62.336 341.333 337.109 341.333 589.611 0 188.203-153.131 341.333-341.333 341.333zM512 362.667c-117.632 0-213.333 95.701-213.333 213.333s95.701 213.333 213.333 213.333 213.333-95.701 213.333-213.333-95.701-213.333-213.333-213.333zM512 746.667c-94.123 0-170.667-76.544-170.667-170.667s76.544-170.667 170.667-170.667 170.667 76.544 170.667 170.667-76.544 170.667-170.667 170.667z" />
<glyph unicode="&#xe932;" glyph-name="categories" d="M352 896h-192c-53.019 0-96-42.981-96-96v0-192c0-53.019 42.981-96 96-96v0h192c53.019 0 96 42.981 96 96v0 192c0 53.019-42.981 96-96 96v0zM384 608c0-17.673-14.327-32-32-32v0h-192c-17.673 0-32 14.327-32 32v0 192c0 17.673 14.327 32 32 32v0h192c17.673 0 32-14.327 32-32v0zM864 896h-192c-53.019 0-96-42.981-96-96v0-192c0-53.019 42.981-96 96-96v0h192c53.019 0 96 42.981 96 96v0 192c0 53.019-42.981 96-96 96v0zM896 608c0-17.673-14.327-32-32-32v0h-192c-17.673 0-32 14.327-32 32v0 192c0 17.673 14.327 32 32 32v0h192c17.673 0 32-14.327 32-32v0zM352 384h-192c-53.019 0-96-42.981-96-96v0-192c0-53.019 42.981-96 96-96v0h192c53.019 0 96 42.981 96 96v0 192c0 53.019-42.981 96-96 96v0zM384 96c0-17.673-14.327-32-32-32v0h-192c-17.673 0-32 14.327-32 32v0 192c0 17.673 14.327 32 32 32v0h192c17.673 0 32-14.327 32-32v0zM864 384h-192c-53.019 0-96-42.981-96-96v0-192c0-53.019 42.981-96 96-96v0h192c53.019 0 96 42.981 96 96v0 192c0 53.019-42.981 96-96 96v0zM896 96c0-17.673-14.327-32-32-32v0h-192c-17.673 0-32 14.327-32 32v0 192c0 17.673 14.327 32 32 32v0h192c17.673 0 32-14.327 32-32v0z" />
<glyph unicode="&#xe933;" glyph-name="left" d="M688.64 869.347c11.997 11.997 31.448 11.997 43.445 0 11.996-11.997 11.996-31.448 0-43.444l-377.897-377.897 377.909-377.909c11.997-11.996 11.997-31.447 0-43.444s-31.448-11.997-43.444 0l-396.743 396.743c-6.715 6.715-9.672 15.766-8.87 24.537-0.845 8.814 2.107 17.922 8.857 24.672z" />
<glyph unicode="&#xe934;" glyph-name="increase" d="M664.297 960c-193.921 0-351.687-157.766-351.687-351.687 0-95.635 38.387-182.458 100.542-245.92l-57.206-57.206c-12.376 8.41-26.883 13.128-42.255 13.53-21.925 0.575-42.543-7.647-58.059-23.149l-233.825-233.827c-8.893-8.895-13.793-20.72-13.793-33.301s4.9-24.406 13.793-33.299l45.349-45.349c8.895-8.893 20.72-13.793 33.299-13.793s24.406 4.898 33.299 13.793l231.282 231.282c28.492 28.492 32.966 71.73 12.136 102.829l57.905 57.905c61.604-53.060 141.729-85.182 229.22-85.182 193.921 0 351.687 157.766 351.687 351.687s-157.766 351.687-351.687 351.687zM343.783 202.33l-231.282-231.282c-3.216-3.216-7.495-4.99-12.046-4.99s-8.827 1.771-12.044 4.99l-45.349 45.349c0 0 0 0 0 0-3.216 3.216-4.99 7.493-4.99 12.044s1.771 8.827 4.99 12.046l233.823 233.823c9.308 9.3 21.58 14.376 34.686 14.376 0.445 0 0.89-0.006 1.335-0.018 13.595-0.357 26.117-6.142 35.261-16.296 17.16-19.043 15.192-50.465-4.385-70.041zM664.297 286.685c-177.346 0-321.628 144.282-321.628 321.628s144.282 321.628 321.628 321.628 321.628-144.282 321.628-321.628-144.282-321.628-321.628-321.628zM664.297 895.875c-158.562 0-287.562-129-287.562-287.562s129-287.562 287.562-287.562 287.562 129 287.562 287.562-129 287.562-287.562 287.562zM664.297 350.81c-141.987 0-257.503 115.516-257.503 257.503s115.516 257.503 257.503 257.503 257.503-115.516 257.503-257.503-115.516-257.503-257.503-257.503zM881.754 659.868c-19.26 81.527-84.383 146.648-165.912 165.904-8.078 1.91-16.174-3.094-18.081-11.172s3.094-16.174 11.172-18.081c70.55-16.663 126.902-73.015 143.568-143.56 1.633-6.916 7.803-11.577 14.615-11.577 1.144 0 2.307 0.132 3.467 0.407 8.078 1.906 13.080 10.002 11.172 18.079zM792.548 623.342h-113.221v113.221c0 8.3-6.729 15.029-15.029 15.029s-15.029-6.729-15.029-15.029v-113.221h-113.221c-8.3 0-15.029-6.729-15.029-15.029s6.729-15.029 15.029-15.029h113.221v-113.221c0-8.3 6.729-15.029 15.029-15.029s15.029 6.729 15.029 15.029v113.221h113.221c8.3 0 15.029 6.729 15.029 15.029s-6.729 15.029-15.029 15.029z" />
<glyph unicode="&#xe935;" glyph-name="verified" d="M874.038 810.040c-96.704 96.702-225.278 149.96-362.038 149.96-136.762 0-265.338-53.258-362.040-149.96-96.704-96.704-149.96-225.28-149.96-362.040s53.256-265.334 149.96-362.038c96.704-96.704 225.278-149.962 362.040-149.962 136.76 0 265.334 53.258 362.038 149.962s149.962 225.278 149.962 362.038-53.258 265.334-149.962 362.040zM512-4c-249.234 0-452 202.766-452 452s202.766 452 452 452 452-202.766 452-452-202.766-452-452-452zM756.61 612.282c-11.714 11.712-30.71 11.712-42.424-0.002l-264.918-264.918-139.454 139.454c-11.714 11.714-30.71 11.714-42.426 0s-11.716-30.71 0-42.426l160.666-160.666c5.858-5.858 13.536-8.786 21.212-8.786s15.356 2.93 21.212 8.786l286.132 286.132c11.716 11.714 11.716 30.71 0 42.426z" />
<glyph unicode="&#xe936;" glyph-name="plus" d="M984 488h-432v432c0 22.092-17.908 40-40 40s-40-17.908-40-40v-432h-432c-22.092 0-40-17.908-40-40s17.908-40 40-40h432v-432c0-22.092 17.908-40 40-40s40 17.908 40 40v432h432c22.092 0 40 17.908 40 40s-17.908 40-40 40z" />
<glyph unicode="&#xe937;" glyph-name="plus-1" d="M128 448c0 17.674 14.327 32 32 32h704c17.674 0 32-14.326 32-32s-14.326-32-32-32h-704c-17.673 0-32 14.326-32 32zM512 832c17.674 0 32-14.327 32-32v-704c0-17.674-14.326-32-32-32s-32 14.326-32 32v704c0 17.673 14.326 32 32 32z" />
<glyph unicode="&#xe938;" glyph-name="minus" d="M984 488h-944c-22.092 0-40-17.908-40-40s17.908-40 40-40h944c22.092 0 40 17.908 40 40s-17.908 40-40 40z" />
<glyph unicode="&#xe939;" glyph-name="minus-1" d="M873.968 416h-723.936c-17.67 0-32 14.314-32 32s14.33 32 32 32h723.936c17.67 0 32-14.314 32-32s-14.326-32-32-32z" />
<glyph unicode="&#xe93a;" glyph-name="like" d="M979.834 263.843c20.985 26.767 31.050 55.461 29.765 85.012-1.285 32.549-15.846 58.031-27.838 73.663 13.919 34.69 19.272 89.295-27.195 131.694-34.048 31.050-91.864 44.969-171.951 41.114-56.318-2.57-103.428-13.062-105.355-13.491h-0.214c-10.707-1.927-22.056-4.283-33.619-6.852-0.857 13.705 1.499 47.752 26.767 124.413 29.979 91.222 28.266 161.031-5.568 207.712-35.547 49.037-92.293 52.892-108.995 52.892-16.060 0-30.836-6.638-41.328-18.844-23.769-27.624-20.985-78.588-17.987-102.143-28.266-75.804-107.496-261.675-174.521-313.281-1.285-0.857-2.355-1.927-3.426-2.998-19.701-20.771-32.977-43.256-41.971-62.956-12.634 6.852-26.981 10.707-42.399 10.707h-130.623c-49.251 0-89.081-40.043-89.081-89.081v-347.972c0-49.251 40.043-89.081 89.081-89.081h130.623c19.058 0 36.831 5.996 51.393 16.274l50.322-5.996c7.709-1.071 144.756-18.416 285.444-15.632 25.482-1.927 49.465-2.998 71.736-2.998 38.33 0 71.736 2.998 99.573 8.994 65.526 13.919 110.28 41.757 132.979 82.657 17.345 31.264 17.345 62.314 14.561 82.014 42.613 38.545 50.108 81.158 48.609 111.137-0.857 17.345-4.711 32.12-8.78 43.041zM103.374 2.168c-17.345 0-31.264 14.133-31.264 31.264v348.186c0 17.345 14.133 31.264 31.264 31.264h130.623c17.345 0 31.264-14.133 31.264-31.264v-347.972c0-17.345-14.133-31.264-31.264-31.264h-130.623v-0.214zM925.015 288.897c-8.994-9.422-10.707-23.769-3.854-34.904 0-0.214 8.78-15.204 9.85-35.761 1.499-28.052-11.992-52.892-40.258-74.091-10.064-7.709-14.133-20.985-9.85-32.977 0-0.214 9.208-28.48-5.782-55.247-14.347-25.696-46.253-44.112-94.648-54.391-38.759-8.351-91.436-9.85-156.105-4.711-0.857 0-1.927 0-2.998 0-137.69-2.998-276.878 14.99-278.377 15.204h-0.214l-21.628 2.57c1.285 5.996 1.927 12.42 1.927 18.844v348.186c0 9.208-1.499 18.202-4.069 26.553 3.854 14.347 14.561 46.253 39.829 73.449 96.147 76.233 190.153 333.41 194.222 344.545 1.713 4.497 2.141 9.422 1.285 14.347-3.64 23.983-2.355 53.32 2.784 62.1 11.349-0.214 41.971-3.426 60.386-28.908 21.842-30.193 20.985-84.156-2.57-155.677-35.975-108.995-38.973-166.384-10.493-191.652 14.133-12.634 32.977-13.276 46.682-8.351 13.062 2.998 25.482 5.568 37.26 7.495 0.857 0.214 1.927 0.428 2.784 0.642 65.74 14.347 183.515 23.127 224.415-14.133 34.69-31.692 10.064-73.663 7.281-78.16-7.923-11.992-5.568-27.624 5.139-37.26 0.214-0.214 22.698-21.414 23.769-49.894 0.857-19.058-8.137-38.545-26.767-57.817z" />
<glyph unicode="&#xe93b;" glyph-name="close" d="M73.44 9.44c5.792-5.798 13.797-9.385 22.64-9.385s16.848 3.587 22.64 9.385v0l393.28 393.28 393.44-393.28c5.794-5.794 13.799-9.378 22.64-9.378 17.683 0 32.018 14.335 32.018 32.018 0 8.841-3.584 16.846-9.378 22.64l-393.44 393.28 393.28 393.44c5.794 5.794 9.378 13.799 9.378 22.64 0 17.683-14.335 32.018-32.018 32.018-8.841 0-16.846-3.584-22.64-9.378v0l-393.28-393.44-393.44 393.28c-5.559 4.783-12.847 7.695-20.815 7.695-17.673 0-32-14.327-32-32 0-7.968 2.912-15.255 7.73-20.857l-0.035 0.042 393.28-393.44-393.28-393.44c-5.751-5.784-9.305-13.757-9.305-22.56s3.555-16.776 9.307-22.562l-0.002 0.002z" />
<glyph unicode="&#xe93c;" glyph-name="phone-call-1" d="M961.12 236.8c-2.624 2.080-193.12 139.392-245.408 129.536-24.96-4.416-39.232-21.44-67.872-55.52-4.608-5.504-15.68-18.688-24.288-28.064-20.871 6.849-38.344 14.128-55.141 22.553l2.309-1.049c-88.522 43.761-158.511 113.75-201.126 199.715l-1.146 2.557c-7.387 14.499-14.666 31.971-20.69 50.018l-0.814 2.814c9.408 8.64 22.592 19.712 28.224 24.448 33.92 28.48 50.976 42.752 55.392 67.776 9.056 51.84-128.16 243.648-129.6 245.376-12.389 17.537-31.943 29.304-54.31 31.025l-0.25 0.015c-55.616 0-214.4-205.984-214.4-240.672 0-2.016 2.912-206.944 255.616-464 256.8-252.416 461.696-255.328 463.712-255.328 34.72 0 240.672 158.784 240.672 214.4-1.717 22.539-13.423 42.033-30.653 54.247l-0.227 0.153z" />
<glyph unicode="&#xe93d;" glyph-name="instagram" d="M746.811 960h-469.624c-152.843 0-277.187-124.344-277.187-277.187v-469.632c0-152.836 124.344-277.179 277.187-277.179h469.632c152.836 0 277.179 124.344 277.179 277.179v469.632c0 152.843-124.344 277.187-277.187 277.187zM963.967 213.181c0-119.734-97.414-217.148-217.156-217.148h-469.624c-119.742 0-217.156 97.414-217.156 217.148v469.632c0 119.742 97.414 217.156 217.156 217.156h469.632c119.734 0 217.148-97.414 217.148-217.156zM511.999 727.993c-154.39 0-279.992-125.601-279.992-279.992s125.601-279.992 279.992-279.992 279.992 125.601 279.992 279.992-125.601 279.992-279.992 279.992zM511.999 228.040c-121.281 0-219.961 98.672-219.961 219.961 0 121.281 98.68 219.961 219.961 219.961 121.289 0 219.961-98.68 219.961-219.961 0-121.289-98.672-219.961-219.961-219.961zM798.686 827.43c-45.625 0-82.734-37.117-82.734-82.734 0-45.625 37.109-82.742 82.734-82.742s82.742 37.117 82.742 82.742-37.117 82.734-82.742 82.734zM798.686 721.993c-12.516 0-22.703 10.187-22.703 22.703 0 12.523 10.187 22.703 22.703 22.703 12.523 0 22.711-10.18 22.711-22.703 0-12.516-10.187-22.703-22.711-22.703z" />
<glyph unicode="&#xe93e;" glyph-name="search" d="M469.333 149.333c-188.513 0-341.333 152.82-341.333 341.333s152.82 341.333 341.333 341.333c188.513 0 341.333-152.82 341.333-341.333v0c-0.218-188.425-152.908-341.115-341.312-341.333h-0.021zM469.333 746.667c-141.385 0-256-114.615-256-256s114.615-256 256-256c141.385 0 256 114.615 256 256v0c-0.146 141.326-114.674 255.854-255.986 256h-0.014zM853.333 64c-11.781 0.003-22.446 4.78-30.165 12.501l-170.667 170.667c-7.41 7.665-11.977 18.12-11.977 29.641 0 23.564 19.103 42.667 42.667 42.667 11.521 0 21.976-4.567 29.653-11.989l170.655-170.655c7.718-7.721 12.492-18.386 12.492-30.165 0-23.561-19.097-42.661-42.657-42.667h-0.001z" />
<glyph unicode="&#xe93f;" glyph-name="right-arrow-2" d="M128 448c0 17.674 14.327 32 32 32h704c17.674 0 32-14.326 32-32s-14.326-32-32-32h-704c-17.673 0-32 14.326-32 32zM553.373 758.628c12.496 12.497 32.758 12.497 45.254 0l288-288c12.496-12.496 12.496-32.758 0-45.254l-288-288c-12.496-12.496-32.758-12.496-45.254 0s-12.496 32.758 0 45.254l265.373 265.373-265.373 265.372c-12.496 12.497-12.496 32.758 0 45.255z" />
<glyph unicode="&#xe940;" glyph-name="play-button-arrowhead" d="M217.828 937.422c-92.319 52.956-167.166 9.574-167.166-96.819v-785.131c0-106.499 74.847-149.825 167.166-96.919l686.243 393.556c92.351 52.974 92.351 138.801 0 191.763l-686.243 393.55z" />
<glyph unicode="&#xe941;" glyph-name="quote-right" d="M960 544c0-60.189-11.626-118.218-34.531-172.438-71.75-172.624-172.938-243.248-349.094-243.562-0.032 0-0.032 0-0.064 0-15.251 0-28.374 10.749-31.376 25.686-3.002 14.97 4.97 29.968 19.062 35.843 84.438 35.187 109.811 76.406 139.533 162.467h-63.53c-52.938 0-96 43.062-96 96v224.003c0 52.938 43.062 96 96 96h222.406c10.874 0 21.030-5.533 26.906-14.688 42.688-66.342 70.688-116.749 70.688-209.312zM382.406 768h-222.406c-52.938 0-96-43.062-96-96v-224c0-52.938 43.062-96 96-96h63.533c-29.718-86.064-55.094-127.28-139.533-162.467-14.093-5.875-22.064-20.874-19.062-35.843 2.998-14.941 16.125-25.69 31.376-25.69h0.064c176.157 0.314 277.344 70.938 349.094 243.562 22.902 54.221 34.528 112.25 34.528 172.438 0 92.563-28 142.97-70.688 209.312-5.875 9.155-16.032 14.688-26.906 14.688z" />
<glyph unicode="&#xe942;" glyph-name="star-1" d="M957.152 520l-199.328-194.304 47.072-274.432c2.048-12-2.88-24.128-12.736-31.296-5.568-4.064-12.192-6.112-18.816-6.112-5.088 0-10.208 1.216-14.88 3.68l-246.464 129.568-246.432-129.536c-10.752-5.696-23.84-4.768-33.696 2.432-9.856 7.168-14.784 19.296-12.736 31.296l47.072 274.432-199.36 194.272c-8.704 8.512-11.872 21.248-8.096 32.8s13.792 20.032 25.856 21.792l275.488 40 123.2 249.664c10.784 21.856 46.624 21.856 57.408 0l123.2-249.664 275.488-40c12.064-1.76 22.080-10.208 25.856-21.792s0.608-24.256-8.096-32.8z" />
<glyph unicode="&#xe943;" glyph-name="share" d="M792.719 322.407c-59.71 0-113.164-27.239-148.632-69.935l-230.717 130.992c7.175 20.19 11.118 41.899 11.118 64.523 0 22.619-3.943 44.328-11.118 64.518l230.699 131.024c35.463-42.71 88.927-69.958 148.641-69.958 106.512 0 193.167 86.687 193.167 193.244 0.009 106.525-86.646 193.185-193.158 193.185-106.525 0-193.19-86.66-193.19-193.181 0-22.624 3.939-44.337 11.118-64.532l-230.713-131.029c-35.463 42.688-88.913 69.917-148.609 69.917-106.539 0-193.217-86.66-193.217-193.185 0-106.521 86.678-193.181 193.217-193.181 59.696 0 113.141 27.23 148.605 69.913l230.717-130.997c-7.179-20.195-11.123-41.913-11.123-64.541 0-106.521 86.664-193.181 193.19-193.181 106.512 0 193.167 86.664 193.167 193.181 0.005 106.539-86.651 193.221-193.163 193.221zM792.719 892.399c69.237 0 125.566-56.334 125.566-125.58 0-69.282-56.33-125.643-125.566-125.643-69.25 0-125.589 56.361-125.589 125.643 0 69.246 56.339 125.58 125.589 125.58zM231.33 322.407c-69.264 0-125.616 56.339-125.616 125.58 0 69.25 56.352 125.584 125.616 125.584 69.237 0 125.562-56.334 125.562-125.584 0-69.241-56.33-125.58-125.562-125.58zM792.719 3.601c-69.25 0-125.589 56.339-125.589 125.58 0 69.268 56.339 125.625 125.589 125.625 69.237 0 125.566-56.357 125.566-125.625 0-69.241-56.33-125.58-125.566-125.58z" />
<glyph unicode="&#xe944;" glyph-name="calendar" d="M277.333 896c23.564 0 42.667-19.103 42.667-42.667v-42.667c0-23.564-19.103-42.667-42.667-42.667s-42.667 19.103-42.667 42.667v42.667c0 23.564 19.103 42.667 42.667 42.667zM746.667 896c23.564 0 42.667-19.103 42.667-42.667v-42.667c0-23.564-19.103-42.667-42.667-42.667s-42.667 19.103-42.667 42.667v42.667c0 23.564 19.103 42.667 42.667 42.667zM85.333 576v-490.667c0-47.125 38.208-85.333 85.333-85.333h682.667c47.125 0 85.333 38.208 85.333 85.333v490.667zM341.333 149.333c0-23.573-19.093-42.667-42.667-42.667h-42.667c-23.573 0-42.667 19.093-42.667 42.667v42.667c0 23.573 19.093 42.667 42.667 42.667h42.667c23.573 0 42.667-19.093 42.667-42.667zM341.333 384c0-23.573-19.093-42.667-42.667-42.667h-42.667c-23.573 0-42.667 19.093-42.667 42.667v42.667c0 23.573 19.093 42.667 42.667 42.667h42.667c23.573 0 42.667-19.093 42.667-42.667zM576 149.333c0-23.573-19.093-42.667-42.667-42.667h-42.667c-23.573 0-42.667 19.093-42.667 42.667v42.667c0 23.573 19.093 42.667 42.667 42.667h42.667c23.573 0 42.667-19.093 42.667-42.667zM576 384c0-23.573-19.093-42.667-42.667-42.667h-42.667c-23.573 0-42.667 19.093-42.667 42.667v42.667c0 23.573 19.093 42.667 42.667 42.667h42.667c23.573 0 42.667-19.093 42.667-42.667zM810.667 149.333c0-23.573-19.093-42.667-42.667-42.667h-42.667c-23.573 0-42.667 19.093-42.667 42.667v42.667c0 23.573 19.093 42.667 42.667 42.667h42.667c23.573 0 42.667-19.093 42.667-42.667zM810.667 384c0-23.573-19.093-42.667-42.667-42.667h-42.667c-23.573 0-42.667 19.093-42.667 42.667v42.667c0 23.573 19.093 42.667 42.667 42.667h42.667c23.573 0 42.667-19.093 42.667-42.667zM938.667 618.667v128c0 47.125-38.208 85.333-85.333 85.333h-21.333v-21.333c0-47.061-38.272-85.333-85.333-85.333s-85.333 38.272-85.333 85.333v21.333h-298.667v-21.333c0-47.061-38.272-85.333-85.333-85.333s-85.333 38.272-85.333 85.333v21.333h-21.333c-47.125 0-85.333-38.208-85.333-85.333v-128z" />
<glyph unicode="&#xe945;" glyph-name="speech-bubbles-comment-option" d="M604.295 304.311c61.897 26.095 110.761 61.615 146.567 106.574 35.802 44.949 53.705 93.899 53.705 146.851 0 52.955-17.903 101.908-53.719 146.859-35.802 44.951-84.658 80.475-146.563 106.576-61.905 26.097-129.236 39.141-202.004 39.141-72.761 0-140.092-13.052-202.002-39.141-61.903-26.099-110.761-61.623-146.565-106.576-35.808-44.959-53.715-93.905-53.715-146.861 0-45.329 13.544-88.014 40.59-128.014 27.044-39.991 64.189-73.712 111.423-101.136-3.807-9.151-7.712-17.521-11.713-25.15-4.003-7.618-8.76-14.945-14.288-21.998-5.524-7.055-9.805-12.575-12.855-16.562-3.048-3.999-8-9.631-14.861-16.856-6.859-7.239-11.242-12.001-13.144-14.28 0 0.382-0.763-0.48-2.288-2.576-1.527-2.096-2.384-3.042-2.572-2.864-0.192 0.206-0.955-0.747-2.288-2.842-1.333-2.098-2.001-3.144-2.001-3.144l-1.431-2.848c-0.564-1.151-0.953-2.276-1.141-3.427-0.192-1.135-0.288-2.382-0.288-3.711s0.188-2.562 0.576-3.711c0.763-4.946 2.952-8.939 6.571-12.001 3.617-3.042 7.517-4.561 11.713-4.561h1.715c19.044 2.666 35.428 5.712 49.14 9.145 58.667 15.231 111.624 39.623 158.86 73.143 34.283-6.096 67.808-9.143 100.567-9.143 72.767-0.026 140.106 13.014 202.010 39.113zM983.426 283.174c27.056 39.807 40.574 82.554 40.574 128.274 0 46.862-14.302 90.698-42.863 131.456-28.575 40.754-67.437 74.665-116.575 101.712 8.754-28.569 13.136-57.52 13.136-86.859 0-51.043-12.745-99.425-38.286-145.144-25.523-45.705-62.095-86.083-109.712-121.136-44.192-31.999-94.479-56.563-150.864-73.712-56.369-17.137-115.23-25.715-176.565-25.715-11.424 0-28.189 0.755-50.281 2.276 76.568-50.275 166.476-75.425 269.709-75.425 32.766 0 66.286 3.054 100.575 9.149 47.235-33.534 100.193-57.904 158.856-73.151 13.714-3.439 30.096-6.479 49.144-9.143 4.569-0.382 8.768 0.953 12.575 4.001 3.809 3.046 6.289 7.225 7.425 12.553-0.178 2.288 0 3.543 0.574 3.725 0.562 0.18 0.466 1.425-0.288 3.707-0.753 2.29-1.137 3.433-1.137 3.433l-1.425 2.85c-0.396 0.753-1.041 1.807-1.999 3.136-0.953 1.321-1.711 2.288-2.288 2.856-0.56 0.568-1.411 1.527-2.562 2.85-1.137 1.321-1.903 2.186-2.288 2.568-1.903 2.288-6.283 7.047-13.138 14.288-6.863 7.231-11.807 12.849-14.855 16.848-3.048 4.001-7.335 9.521-12.857 16.576-5.52 7.041-10.288 14.377-14.288 21.998-3.999 7.618-7.904 16.002-11.713 25.138 47.239 27.452 84.374 61.071 111.415 100.892z" />
<glyph unicode="&#xe946;" glyph-name="user-1" d="M757.333 661.333c0-135.494-109.839-245.333-245.333-245.333s-245.333 109.839-245.333 245.333c0 135.494 109.839 245.333 245.333 245.333s245.333-109.839 245.333-245.333zM906.667 64c0-41.216-33.408-74.667-74.667-74.667h-640c-41.259 0-74.667 33.451-74.667 74.667 0 182.613 148.053 330.667 330.667 330.667h128c182.613 0 330.667-148.053 330.667-330.667zM875.563 32.896c-0.555-0.213-0.896-0.469-0.896-0.896z" />
<glyph unicode="&#xe947;" glyph-name="chevron" d="M352 96c-8.184 0-16.376 3.128-22.624 9.376-12.504 12.504-12.504 32.752 0 45.248l297.376 297.376-297.376 297.376c-12.504 12.504-12.504 32.752 0 45.248s32.752 12.504 45.248 0l320-320c12.504-12.504 12.504-32.752 0-45.248l-320-320c-6.248-6.248-14.44-9.376-22.624-9.376z" />
<glyph unicode="&#xe948;" glyph-name="paper-plane" d="M373.333 208.555v-197.888c0-13.824 8.875-26.069 22.016-30.421 3.285-1.067 6.656-1.579 9.984-1.579 9.984 0 19.627 4.693 25.771 13.056l115.755 157.525zM1010.56 954.069c-9.813 6.955-22.699 7.893-33.365 2.304l-960-501.333c-11.349-5.931-18.048-18.048-17.109-30.805 0.981-12.8 9.472-23.723 21.547-27.861l266.88-91.221 568.363 485.973-439.808-529.877 447.275-152.875c3.328-1.109 6.827-1.707 10.325-1.707 5.803 0 11.563 1.579 16.64 4.651 8.107 4.949 13.611 13.269 15.019 22.613l117.333 789.333c1.749 11.947-3.285 23.808-13.099 30.805z" />
<glyph unicode="&#xe949;" glyph-name="add" d="M512 80.040c-27.62 0-50 22.38-50 50v635.92c0 27.62 22.38 50 50 50s50-22.38 50-50v-635.92c0-27.62-22.38-50-50-50zM829.96 398h-635.92c-27.62 0-50 22.38-50 50s22.38 50 50 50h635.92c27.62 0 50-22.38 50-50s-22.38-50-50-50z" />
<glyph unicode="&#xe94a;" glyph-name="check-mark" d="M156.402 485.898c-51.578-0.149-93.333-41.996-93.333-93.595 0-22.473 7.92-43.096 21.122-59.23l-0.132 0.166 237.745-291.237c15.698-19.379 39.493-31.665 66.158-31.665 1.711 0 3.411 0.051 5.097 0.15l-0.232-0.011c28.857 1.55 54.91 16.987 71.52 42.368l493.857 795.357c0.081 0.132 0.165 0.264 0.252 0.394 4.634 7.115 3.131 21.215-6.433 30.072-4.664 4.327-10.932 6.982-17.821 6.982-8.166 0-15.46-3.731-20.271-9.582l-0.036-0.045q-0.266-0.327-0.547-0.644l-498.062-562.735c-3.973-4.474-9.741-7.28-16.164-7.28-5.603 0-10.707 2.135-14.544 5.635l0.017-0.015-165.297 150.422c-16.506 15.17-38.612 24.474-62.891 24.493h-0.004z" />
<glyph unicode="&#xe94b;" glyph-name="sparkler" d="M16 448l400-96 96-400 96 400 400 96-400 96-96 400-96-400z" />
<glyph unicode="&#xe94c;" glyph-name="down-chevron" d="M225.83 606.17c-16.662-16.663-16.662-43.677 0-60.34l256-256c16.661-16.661 43.678-16.661 60.339 0l256 256c16.661 16.663 16.661 43.677 0 60.34s-43.678 16.662-60.339 0l-225.83-225.831-225.83 225.831c-16.663 16.662-43.677 16.662-60.34 0z" />
<glyph unicode="&#xe94d;" glyph-name="arrow-upper-right" d="M810.667 277.333c0-23.565-19.102-42.667-42.667-42.667s-42.667 19.102-42.667 42.667v323.659l-439.165-439.162c-16.662-16.661-43.677-16.661-60.34 0s-16.662 43.678 0 60.339l439.165 439.164h-323.661c-23.564 0-42.667 19.103-42.667 42.667s19.102 42.667 42.667 42.667h426.667c23.565 0 42.667-19.102 42.667-42.667z" />
<glyph unicode="&#xe94e;" glyph-name="arrowhead-up" d="M512 558.336l-268.501-268.501c-16.64-16.64-43.691-16.64-60.331 0s-16.64 43.691 0 60.331l298.667 298.667c16.64 16.683 43.691 16.683 60.331 0l298.667-298.667c16.64-16.64 16.64-43.691 0-60.331s-43.691-16.64-60.331 0z" />
<glyph unicode="&#xe94f;" glyph-name="tag" d="M536.599 925.679c-22.727 22.663-53.739 35.048-85.83 34.279l-328.235-8.366c-62.379-1.556-112.585-51.752-114.141-114.141l-8.357-328.226c-0.76-32.091 11.615-63.102 34.27-85.839l453.103-453.085c45.784-45.684 119.898-45.684 165.683 0l336.592 336.592c45.757 45.748 45.757 119.935 0 165.692zM956.549 340.029l-336.592-336.582c-27.469-27.414-71.944-27.414-99.413 0l-453.094 453.085c-13.593 13.647-21.025 32.247-20.567 51.505l8.357 328.226c0.943 37.428 31.057 67.551 68.484 68.484l328.226 8.366c0.595 0.009 1.172 0.018 1.767 0.018 18.645-0.027 36.521-7.432 49.729-20.595l453.103-453.094c27.405-27.469 27.405-71.944 0-99.413zM306.304 766.505c-62.306 0-112.814-50.507-112.823-112.814 0-62.306 50.517-112.814 112.814-112.814 62.306 0 112.814 50.507 112.814 112.814-0.073 62.269-50.535 112.74-112.804 112.814zM306.304 587.742c-36.43 0-65.949 29.528-65.958 65.949 0 36.421 29.528 65.949 65.949 65.949s65.949-29.528 65.949-65.949c-0.037-36.402-29.537-65.903-65.94-65.949z" />
<glyph unicode="&#xe950;" glyph-name="chat" d="M884 528c-11.039 0-20-8.961-20-20s8.961-20 20-20 20 8.961 20 20-8.961 20-20 20zM552 728c11.039 0 20 8.961 20 20s-8.961 20-20 20-20-8.961-20-20 8.961-20 20-20zM964 648h-272v180c0 33.086-26.914 60-60 60h-572c-33.086 0-60-26.914-60-60v-400c0-33.086 26.914-60 60-60h60v-100c0-17.914 21.648-26.633 34.141-14.141l114.141 114.141h63.719v-180c0-33.086 26.914-60 60-60h363.719l114.141-114.141c12.508-12.508 34.141-3.734 34.141 14.141v100h60c33.086 0 60 26.914 60 60v400c0 33.086-26.914 60-60 60zM140 608.023h195.438c-2.219-6.266-3.438-12.992-3.438-20v-60.023h-192c-11.047 0-20-8.953-20-20s8.953-20 20-20h192v-80h-72c-5.305 0-10.391-2.109-14.141-5.859l-85.859-85.852v71.711c0 11.047-8.953 20-20 20h-80c-11.031 0-20 8.969-20 20v400c0 11.031 8.969 20 20 20h572c11.031 0 20-8.969 20-20v-180c-28.141 0-483.82 0-512 0-11.047 0-20-8.953-20-20s8.953-19.977 20-19.977zM984 188c0-11.031-8.969-20-20-20h-80c-11.047 0-20-8.953-20-20v-71.711l-85.859 85.852c-3.75 3.75-8.836 5.859-14.141 5.859h-372c-11.031 0-20 8.977-20 20v400c0 11.031 8.969 20 20 20h572c11.031 0 20-8.969 20-20zM140 728h332c11.047 0 20 8.953 20 20s-8.953 20-20 20h-332c-11.047 0-20-8.953-20-20s8.953-20 20-20zM472 488h332c11.047 0 20 8.953 20 20s-8.953 20-20 20h-332c-11.047 0-20-8.953-20-20s8.953-20 20-20zM884 408h-412c-11.047 0-20-8.953-20-20s8.953-20 20-20h412c11.047 0 20 8.953 20 20s-8.953 20-20 20zM884 288h-412c-11.047 0-20-8.953-20-20s8.953-20 20-20h412c11.047 0 20 8.953 20 20s-8.953 20-20 20z" />
<glyph unicode="&#xe951;" glyph-name="right-arrow-3" d="M233.372 726.628c12.497 12.497 32.758 12.497 45.255 0l512-512c12.496-12.496 12.496-32.758 0-45.254s-32.758-12.496-45.254 0l-512 512c-12.497 12.497-12.497 32.758 0 45.255zM768 640c17.674 0 32-14.326 32-32v-416c0-17.674-14.326-32-32-32h-416c-17.674 0-32 14.326-32 32s14.326 32 32 32h384v384c0 17.674 14.326 32 32 32z" />
<glyph unicode="&#xe952;" glyph-name="customer-service" d="M640.297-17.445c-60.469-49.93-146.969-56.023-238.141-25.422-88.070 29.563-181.109 93.711-258.398 185.492-0.578 0.609-1.117 1.25-1.609 1.914-77.016 92.109-124.047 194.891-137.844 286.727-14.367 95.641 7.023 180.203 67.578 231.016l0.406 0.328c15.016 12.203 37.688 9.219 62.289-5.547 18.766-11.25 40.188-29.859 59.945-53.227 0.563-0.594 1.078-1.211 1.555-1.844 19.18-23.031 39.852-54.211 53.867-81.422 17.805-34.563 24.352-66.195 7.898-80-18.695-15.688-29.281-37.656-31.273-60.414-1.992-22.781 4.633-46.289 20.344-65.016l83.102-99.031c15.688-18.703 37.656-29.289 60.414-31.281 22.781-1.992 46.289 4.633 65.016 20.344 16.391 13.758 46.383 1.797 77.313-21.727 43.086-32.773 94.602-85.375 114.492-137.297 10.023-26.188 9.273-48.625-4.492-61.484-0.773-0.781-1.594-1.477-2.461-2.109zM749.984 112.313c59.055 29.922 110.172 73.211 149.359 125.883 52.672 70.781 83.844 158.57 83.844 253.703 0 117.438-47.602 223.766-124.563 300.727s-183.281 124.563-300.727 124.563c-81.883 0-158.273-23.055-223.031-63-45.781-28.258-85.945-65.031-118.125-108.148-15.219-20.375-47.523 4.289-32.563 24.305 35.234 47.219 79.195 87.5 129.328 118.438 71.141 43.891 154.859 69.219 244.391 69.219 128.703 0 245.234-52.172 329.578-136.523 84.352-84.344 136.523-200.875 136.523-329.578 0-104.109-34.195-200.289-91.977-277.938-42.961-57.734-98.953-105.18-163.609-137.977-9.805-4.977-21.875-0.875-26.969 9.148-5.086 10.031-1.266 22.195 8.539 27.172zM685.516 84.797c-11.047 0-20-8.953-20-20s8.953-20 20-20c11.039 0 20 8.953 20 20s-8.961 20-20 20zM158.836 711.211c11.039 0 20-8.953 20-20s-8.961-20-20-20c-11.047 0-20 8.953-20 20s8.953 20 20 20zM836.953 471.492h24.75c11.266 0 20.406 9.133 20.406 20.406 0 11.266-9.141 20.406-20.406 20.406h-24.75v130.102c0 11.266-9.133 20.406-20.406 20.406-6.977 0-13.133-3.5-16.813-8.844l-124.227-149.078c-7.18-8.633-6-21.445 2.625-28.617 3.805-3.156 8.414-4.703 12.992-4.695l105.016-0.086v-89.969c0-11.266 9.141-20.406 20.406-20.406 11.273 0 20.406 9.141 20.406 20.406zM796.141 512.297h-61.555l61.555 73.875zM500.813 562.133c0 16.531 6.695 31.5 17.531 42.336 10.828 10.828 25.797 17.531 42.328 17.531 16.539 0 31.508-6.703 42.336-17.531 10.836-10.836 17.531-25.805 17.531-42.336 0-15.797-6.039-27.297-16.125-36.875-12.031-11.422-30.359-21.242-51.539-31.805-51.273-25.578-90.453-102.383-90.563-102.602-5.148-9.992-1.227-22.273 8.766-27.422 2.992-1.539 6.188-2.273 9.328-2.266v-0.047h160.539c11.266 0 20.406 9.133 20.406 20.406s-9.141 20.406-20.406 20.406h-124.57c13.414 19.867 33.125 44.266 54.68 55.016 24.109 12.023 45.273 23.5 61.414 38.82 18.070 17.156 28.883 37.836 28.883 66.367 0 27.797-11.266 52.969-29.492 71.188-18.219 18.219-43.383 29.492-71.188 29.492-27.797 0-52.961-11.273-71.18-29.492-18.227-18.219-29.492-43.391-29.492-71.188 0-11.266 9.133-20.406 20.406-20.406 11.266 0 20.406 9.141 20.406 20.406zM415.070-4.289c78.305-26.289 151.195-22.055 200.094 18.922l0.094 0.078c0.188 0.156-2.156 6.609-6.109 16.93-16.891 44.109-64.742 91.906-100.945 119.445-16.133 12.273-30.391 19.773-31.539 18.813-27.367-22.953-56.656-28.617-89.742-25.719-33.125 2.898-65.172 18.391-88.156 45.781l-83.102 99.031c-22.961 27.367-32.641 61.586-29.742 94.672 2.898 33.117 15.906 63.031 43.297 86.016-11.109 34.438-57.133 97.523-65.148 107.070-17.109 20.383-35.102 36.242-50.375 45.398-9.070 5.438-14.93 8.797-15.609 8.891-0.266-0.219-0.531-0.438-0.805-0.641-48.258-41.078-64.859-111.789-52.648-193.078 12.797-85.18 56.984-181.109 129.547-267.578l0.008-0.008c72.555-86.469 159.289-146.633 240.883-174.023z" />
<glyph unicode="&#xe953;" glyph-name="project-management" d="M458.204 137.482c0-11.044-8.956-20-20-20h-262.472c-11.044 0-20 8.956-20 20s8.956 20 20 20h262.47c11.046 0 20.002-8.954 20.002-20zM438.204 304.586h-262.472c-11.044 0-20-8.956-20-20s8.956-20 20-20h262.47c11.044 0 20 8.956 20 20s-8.954 20-19.998 20zM175.732 705.874h262.47c11.044 0 20 8.956 20 20s-8.956 20-20 20h-262.47c-11.044 0-20-8.956-20-20s8.956-20 20-20zM438.204 451.678h-262.472c-11.044 0-20-8.956-20-20s8.956-20 20-20h262.47c11.044 0 20 8.956 20 20s-8.954 20-19.998 20zM175.732 558.784h447.536c11.044 0 20 8.956 20 20s-8.956 20-20 20h-447.536c-11.044 0-20-8.956-20-20s8.956-20 20-20zM887.21 276.444c0-64.586-52.544-117.13-117.132-117.13-64.586 0-117.13 52.544-117.13 117.13 0 64.588 52.544 117.132 117.13 117.132 64.588 0 117.132-52.544 117.132-117.132zM847.21 276.444c0 42.532-34.602 77.132-77.132 77.132s-77.13-34.602-77.13-77.132 34.602-77.13 77.13-77.13c42.532-0.002 77.132 34.6 77.132 77.13zM1015.068 298.942v-44.996c0-19.178-15.602-34.78-34.78-34.78-12.44 0-22.716-6.88-27.49-18.406-4.776-11.528-2.374-23.66 6.422-32.456 6.568-6.564 10.188-15.298 10.188-24.592 0-9.292-3.62-18.028-10.19-24.596l-31.814-31.816c-6.568-6.568-15.302-10.186-24.594-10.186s-18.028 3.618-24.596 10.188c-8.792 8.796-20.928 11.188-32.454 6.422-11.526-4.776-18.406-15.050-18.406-27.49 0-19.178-15.602-34.78-34.78-34.78h-2.498v-75.454c0-11.044-8.956-20-20-20h-741.144c-11.044 0-20 8.956-20 20v984c0 11.044 8.956 20 20 20h542.006c5.282 0 10.35-2.090 14.096-5.812l199.14-197.852c3.78-3.754 5.904-8.862 5.904-14.188v-220.716h2.498c19.178 0 34.78-15.602 34.78-34.778 0-12.44 6.88-22.714 18.406-27.49 11.522-4.77 23.658-2.374 32.456 6.422 6.566 6.568 15.3 10.186 24.594 10.186 9.292 0 18.026-3.618 24.594-10.186l31.816-31.816c6.568-6.566 10.188-15.302 10.188-24.594s-3.62-18.028-10.19-24.596c-8.792-8.792-11.196-20.926-6.42-32.454 4.774-11.526 15.050-18.406 27.49-18.406 19.176 0 34.778-15.6 34.778-34.778zM590.938 762.158h130.624l-130.624 129.778zM750.078 31.456h-2.498c-19.176 0-34.778 15.602-34.778 34.78 0 12.44-6.88 22.714-18.406 27.488-11.534 4.778-23.662 2.376-32.458-6.422-6.566-6.568-15.3-10.186-24.592-10.186s-18.028 3.618-24.596 10.188l-31.816 31.816c-6.568 6.568-10.186 15.302-10.186 24.594s3.618 18.026 10.188 24.594c8.794 8.792 11.196 20.926 6.422 32.454-4.776 11.526-15.050 18.406-27.49 18.406-19.178 0-34.78 15.602-34.78 34.78v44.996c0 19.178 15.602 34.78 34.78 34.78 12.44 0 22.714 6.88 27.49 18.406 4.774 11.528 2.374 23.66-6.424 32.456-13.56 13.56-13.56 35.626 0 49.188l31.818 31.816c6.566 6.568 15.3 10.186 24.594 10.186 9.292 0 18.026-3.618 24.594-10.188 8.812-8.812 20.956-11.222 32.468-6.456 11.518 4.772 18.392 15.060 18.392 27.526 0 19.176 15.602 34.778 34.778 34.778h2.498v200.722h-179.14c-11.044 0-20 8.956-20 20v177.842h-502.004v-944h701.146zM975.068 293.904c-26.486 1.872-48.884 17.956-59.224 42.914-10.34 24.96-5.874 52.176 11.532 72.228l-24.696 24.694c-20.052-17.408-47.266-21.87-72.224-11.532-24.958 10.34-41.042 32.74-42.916 59.222h-34.92c-1.872-26.508-17.95-48.922-42.9-59.258-24.958-10.332-52.174-5.858-72.242 11.564l-24.696-24.692c17.404-20.052 21.872-47.266 11.534-72.226-10.34-24.96-32.738-41.044-59.224-42.916v-34.922c26.486-1.872 48.884-17.956 59.224-42.916 10.338-24.96 5.874-52.172-11.532-72.224l24.694-24.694c20.056 17.402 47.268 21.872 72.226 11.532 24.96-10.34 41.044-32.738 42.916-59.224h34.92c1.872 26.486 17.956 48.884 42.916 59.224 24.958 10.336 52.174 5.874 72.226-11.534l24.694 24.696c-17.406 20.056-21.872 47.268-11.532 72.226s32.738 41.042 59.224 42.914z" />
<glyph unicode="&#xe954;" glyph-name="telephone-call" d="M961.12 236.992c-1.696 1.408-193.568 137.92-245.376 129.568-24.992-4.416-39.264-21.472-67.904-55.584-4.608-5.504-15.712-18.656-24.288-28.032-20.861 6.838-38.333 14.117-55.128 22.548l2.296-1.044c-88.522 43.761-158.511 113.75-201.126 199.715l-1.146 2.557c-7.387 14.499-14.666 31.971-20.69 50.018l-0.814 2.814c9.408 8.608 22.592 19.712 28.224 24.448 33.952 28.48 50.976 42.784 55.392 67.808 9.056 51.808-128.16 243.616-129.568 245.344-12.43 17.47-31.992 29.17-54.349 30.833l-0.243 0.015c-55.616 0-214.4-205.952-214.4-240.672 0-2.016 2.912-206.944 255.616-464 256.768-252.416 461.696-255.328 463.712-255.328 34.688 0 240.672 158.784 240.672 214.4-1.696 22.602-13.404 42.162-30.655 54.44l-0.225 0.152zM747.776 32.192c-27.776 2.368-199.936 25.056-414.976 236.288-212.256 216.096-234.368 388.544-236.576 415.264 43.536 67.721 93.299 126.182 149.84 177.283l0.752 0.669c1.28-1.28 2.976-3.2 5.152-5.696 41.597-56.154 79.734-119.817 111.441-187.107l2.927-6.909c-10.056-10.115-20.657-19.651-31.769-28.575l-0.743-0.577c-17.987-13.787-33.833-28.719-48.046-45.106l-0.338-0.398c-3.715-5.159-5.941-11.606-5.941-18.572 0-1.929 0.171-3.818 0.498-5.653l-0.029 0.194c7.513-32.052 18.123-60.231 31.839-86.533l-0.959 2.021c50.186-101.491 130.437-181.732 229.005-230.59l2.931-1.314c24.283-12.779 52.462-23.4 82.037-30.417l2.475-0.495c1.662-0.309 3.575-0.486 5.529-0.486 6.946 0 13.371 2.233 18.595 6.021l-0.092-0.064c16.843 14.609 31.828 30.518 45.099 47.81l0.565 0.766c10.048 11.968 23.456 27.936 28.544 32.448 74.347-34.585 138.153-72.771 197.49-116.656l-3.058 2.16c2.656-2.24 4.544-3.968 5.792-5.088-51.775-57.312-110.246-107.087-174.573-148.564l-3.411-2.060zM736 480h64c-0.164 141.319-114.681 255.836-255.984 256h-0.016v-64c105.995-0.109 191.891-86.005 192-191.99v-0.010zM896 480h64c-0.273 229.641-186.359 415.727-415.974 416h-0.026v-64c194.309-0.237 351.763-157.691 352-351.977v-0.023z" />
</font>
</defs>
</svg>
